Завантажити та скачати торренти українською


Духовий оркестр "Зоря" - Українські гімни та марші (2004) [FLAC] | Instrumental

Нові коментарі

Нова тема   Відповісти
Останній раз роздавалося oleh.hryniv (2016-12-08)
Автор Повідомлення
ssTAss 
Модератор музики


З нами з: 05.07.08
Востаннє: 08.12.16
Повідомлень: 10947

2012-01-25 17:53  
Духовий оркестр "Зоря" - Українські гімни та марші (2004) [FLAC] | Instrumental

Духовий оркестр "Зоря" - Українські гімни та марші (2004) [FLAC] | Instrumental


Стиль: Instrumental
Країна, місто: Україна, Львів
Видавець: Гал Рекордс
Виконавці:
Духовий оркестр "Зоря"
Пісні:
    1. Сурми "Червона калина - За Україну"
    2. Гімн України "Ще не вмерла Україна" (муз. М. Вербицького)
    3. Запорізький марш (муз. Є. Адамцевича)
    4. Марш "Січова слава" (муз. Б. Сапелюка)
    5. Марш "Перші запорожці" (муз. М. Заводського)
    6. Марш "Симон Петлюра" (муз. С. Войтюка)
    7. Пластовий марш (муз. Я. Ярославенка)
    8. Гуцульський марш (муз. Б. Гриньовського)
    9. Марш "Калина пам'яті" (муз. Б. Сапелюка)
    10. Марш "Під українським стягом" (муз. Я. Ярославенка)
    11. Сурми "Молодь-Христові" (муз. С. Войтюка)
    12. Гімн "Боже великий, єдиний" (муз. М. Лисенка)
    13. Марш "Молодь-Христові" (муз. Б. Сапелюка)
    14. Козацький марш (муз. народна)
    15. Марш "Соколів" (муз. Я. Ярославенка)
    16. Марш "Степан Бандера" (муз. С Войтюка)
    17. Марш "За рідну землю" (муз. С Сапелюка)
    18. Марш "Не пора" (муз. С Сапелюка)
    19. Многая літа (муз. народна)
log

Exact Audio Copy V0.99 prebeta 5 from 4. May 2009

EAC extraction logfile from 4. November 2010, 1:00

Зоря / Українські гімни та марші

Used drive : HL-DT-STDVD-RAM GSA-H54N Adapter: 0 ID: 0

Read mode : Secure
Utilize accurate stream : Yes
Defeat audio cache : Yes
Make use of C2 pointers : No

Read offset correction : 102
Overread into Lead-In and Lead-Out : No
Fill up missing offset samples with silence : Yes
Delete leading and trailing silent blocks : No
Null samples used in CRC calculations : Yes
Used interface : Native Win32 interface for Win NT & 2000

Used output format : User Defined Encoder
Selected bitrate : 320 kBit/s
Quality : High
Add ID3 tag : No
Command line compressor : C:\Program Files\Exact Audio Copy\Flac\flac.exe
Additional command line options : -8 -V %s

TOC of the extracted CD

Track | Start | Length | Start sector | End sector
---------------------------------------------------------
1 | 0:00.00 | 0:44.00 | 0 | 3299
2 | 0:44.00 | 1:28.04 | 3300 | 9903
3 | 2:12.04 | 2:46.65 | 9904 | 22418
4 | 4:58.69 | 3:59.21 | 22419 | 40364
5 | 8:58.15 | 2:19.15 | 40365 | 50804
6 | 11:17.30 | 3:44.74 | 50805 | 67678
7 | 15:02.29 | 2:20.11 | 67679 | 78189
8 | 17:22.40 | 2:45.60 | 78190 | 90624
9 | 20:08.25 | 4:16.25 | 90625 | 109849
10 | 24:24.50 | 2:20.62 | 109850 | 120411
11 | 26:45.37 | 0:29.21 | 120412 | 122607
12 | 27:14.58 | 2:28.34 | 122608 | 133741
13 | 29:43.17 | 5:18.63 | 133742 | 157654
14 | 35:02.05 | 3:35.65 | 157655 | 173844
15 | 38:37.70 | 2:30.02 | 173845 | 185096
16 | 41:07.72 | 2:19.04 | 185097 | 195525
17 | 43:27.01 | 4:08.71 | 195526 | 214196
18 | 47:35.72 | 4:01.44 | 214197 | 232315
19 | 51:37.41 | 1:42.56 | 232316 | 240021

Range status and errors

Selected range

Filename C:\EAC\Зоря - Українські гімни та марші.wav

Peak level 100.0 %
Range quality 100.0 %
Test CRC 5B0293A8
Copy CRC 5B0293A8
Copy OK

No errors occurred

AccurateRip summary

Track 1 not present in database
Track 2 not present in database
Track 3 not present in database
Track 4 not present in database
Track 5 not present in database
Track 6 not present in database
Track 7 not present in database
Track 8 not present in database
Track 9 not present in database
Track 10 not present in database
Track 11 not present in database
Track 12 not present in database
Track 13 not present in database
Track 14 not present in database
Track 15 not present in database
Track 16 not present in database
Track 17 not present in database
Track 18 not present in database
Track 19 not present in database

None of the tracks are present in the AccurateRip database

End of status report
fooCdtect

fooCDtect - foobar2000 + auCDtect, baralgin.

auCDtect: CD records authenticity detector, version 0.8.2
Copyright (c) 2004 Oleg Berngardt. All rights reserved.
Copyright (c) 2004 Alexander Djourik. All rights reserved.

mode: 0

=======================================================
Track: 01 - Сурми 'Червона калина - За Україну'
Quality: MPEG, 95%
=======================================================
Track: 02 - Гімн України 'Ще не вмерла Україна'
Quality: MPEG, 95%
=======================================================
Track: 03 - Запоріжський марш
Quality: MPEG, 95%
=======================================================
Track: 04 - Марш 'Січова слава'
Quality: CDDA, 100%
=======================================================
Track: 05 - Марш 'Перші запорожці'
Quality: CDDA, 100%
=======================================================
Track: 06 - Марш 'Симон Петлюра'
Quality: CDDA, 99%
=======================================================
Track: 07 - Пластовий марш
Quality: CDDA, 100%
=======================================================
Track: 08 - Гуцульський марш
Quality: CDDA, 100%
=======================================================
Track: 09 - Марш 'Калина пам'яті'
Quality: CDDA, 100%
=======================================================
Track: 10 - Марш 'Під українським стягом'
Quality: CDDA, 99%
=======================================================
Track: 11 - Сурми 'Молодь-Христові'
Quality: CDDA, 100%
=======================================================
Track: 12 - Гімн 'Боже великий, єдиний'
Quality: CDDA, 100%
=======================================================
Track: 13 - Марш 'Молодь-Христові'
Quality: CDDA, 100%
=======================================================
Track: 14 - Козацький марш
Quality: MPEG, 95%
=======================================================
Track: 15 - Марш 'Соколів'
Quality: CDDA, 100%
=======================================================
Track: 16 - Марш 'Степан Бандера'
Quality: CDDA, 99%
=======================================================
Track: 17 - Марш 'За рідну землю'
Quality: CDDA, 100%
=======================================================
Track: 18 - Марш 'Не пора'
Quality: CDDA, 100%
=======================================================
Track: 19 - Многая літа
Quality: CDDA, 100%
=======================================================
Тривалість: 00:53:20
Мова: відсутня
Аудіо-кодек: FLAC
Бітрейт: 842 кб/с
Джерело: інший трекер
Додаткова інформація:
Наскільки я знаю, за зразок серед маршів прийнято вважати марші німецькі. Навіть ще старіші – прусські. Але, як на мене, те, що записано на цьому диску, теж заслуговує на увагу. Тому що при слові „марш” уява починає шукати якісь сухі, строгі, чіткі образи. І це, взагалі, нормально. Але ось яка штука – коли я слухаю саме ці марші, вони не здаються мені сухими. Навпаки – вони якісь соковиті. Здається, їх можна назвати навіть життєрадісними. Як не дивно. Можливо, в цьому можна вгледіти просто ще один прояв національного характеру. Бо, я гадаю, життєрадісність цілком можна вважати національною рисою українців. І – деяка відстороненість, завдяки якій дивишся на життя більш уважно, і тому переживаєш його більш повно. Хоча й дещо сумбурно, але ось такі враження та мислі викликав у мене цей запис. Він дивним чином підіймає настрій, заряджає неквапливою бадьорістю. Приємне відчуття. На гімнах не зупиняюся, бо їх тут тільки два. Але приємні.
УМКА


Якщо Ви справді бажаєте підтримати українське - після прослуховування, якщо музика вам сподобалась,
придбайте ліцензійний диск.
Підтримаймо вітчизняних виконавців!


Срібний реліз (на рейтинг впливає 50% завантаженого)
 Трекер:    Зареєстрований   

Завантажити / скачати українську музику



відео для новачків



 Зареєстрований:   2012-01-25 17:53
 Розмір:   335 MB 
 Оцінка музики:   7.5/10 (Голосів: 11)
   
ssTAss 
Модератор музики


З нами з: 05.07.08
Востаннє: 08.12.16
Повідомлень: 10947

2012-01-25 17:54  
Ваш часовий пояс: GMT + 2 Години

Нова тема   Відповісти