Завантажити та скачати торренти українською


Зараза / Contagion (2011) 1080p Ukr/Eng | Sub Eng | Ліцензія

Нові коментарі

Нова тема   Відповісти
Автор Повідомлення
Anonymous 







2012-01-25 15:33  
Зараза / Contagion (2011) 1080p Ukr/Eng | Sub Eng

Зараза / Contagion (2011) 1080p Ukr/Eng | Sub Eng | Ліцензія


Жанр: драма, трилер
Країна: США, ОАЕ



Кіностудія / кінокомпанія: Warner Bros. Pictures, Participant Media, Imagenation Abu Dhabi FZ
Режисер: Стівен Содерберг
Актори: Маріон Котійяр, Метт Деймон, Лоренс Фішберн, Джуд Лоу, Гвінет Пелтроу, Кейт Уїнслет, Брайан Кренстон, Дженніфер Ель, Санаа Летен, Тінг Яу Цуй

Сюжет:
Міжнародна організація лікарів спільно з Центром з контролю і профілактики захворювань США намагається перешкодити поширенню смертельного вірусу.


Тривалість: 01:46:26
Якість: [CHD]
Відео:
кодек:
розмір кадру: 1920x1080
бітрейт: 9153 кб/с

Аудіо 1:
мова: українська
переклад: професійний дубльований
кодек: 5.1
бітрейт: 384 кб/с

Аудіо 2:
мова: англійська
переклад: оригінал
кодек: 5.1
бітрейт: 1510 кб/с

Субтитри:
мова: англійська
тип: програмні (м'які)
формат: *.srt

MediaInfo

Format : Matroska
File size : 8.21 GiB
Duration : 1h 46mn
Overall bit rate : 11.0 Mbps
Movie name : Contagion (2011) 1080p
Encoded date : UTC 2012-01-25 13:17:23
Writing application : mkvmerge v2.4.2 ('Oh My God') built on Jan 18 2009 17:30:28
Writing library : libebml v0.7.7 + libmatroska v0.8.1
Video #1
ID : 1
Format : AVC
Format/Info : Advanced Video Codec
Format profile : [email protected]
Format settings, CABAC : Yes
Format settings, ReFrames : 4 frames
Muxing mode : Container [email protected]
Codec ID : V_MPEG4/ISO/AVC
Duration : 1h 46mn
Bit rate : 8 933 Kbps
Nominal bit rate : 9 153 Kbps
Width : 1 920 pixels
Height : 1 080 pixels
Display aspect ratio : 16:9
Frame rate : 23.976 fps
Resolution : 24 bits
Colorimetry : 4:2:0
Scan type : Progressive
Bits/(Pixel*Frame) : 0.180
Stream size : 6.63 GiB (81%)
Title : Contagion (2011) 1080p
Writing library : core 119 r2106 07efeb4
Encoding settings : cabac=1 / ref=4 / deblock=1:-3:-3 / analyse=0x3:0x113 / me=umh / subme=10 / psy=1 / psy_rd=1.05:0.10 / mixed_ref=1 / me_range=48 / chroma_me=1 / trellis=2 / 8x8dct=1 / cqm=1 / deadzone=21,11 / fast_pskip=0 / chroma_qp_offset=-2 / threads=12 / sliced_threads=0 / nr=0 / decimate=1 / interlaced=0 / bluray_compat=0 / constrained_intra=0 / bframes=6 / b_pyramid=2 / b_adapt=2 / b_bias=0 / direct=3 / weightb=1 / open_gop=0 / weightp=2 / keyint=250 / keyint_min=23 / scenecut=40 / intra_refresh=0 / rc_lookahead=60 / rc=2pass / mbtree=1 / bitrate=9153 / ratetol=2.0 / qcomp=0.70 / qpmin=3 / qpmax=69 / qpstep=4 / cplxblur=20.0 / qblur=0.5 / vbv_maxrate=40000 / vbv_bufsize=30000 / nal_hrd=none / ip_ratio=1.40 / aq=2:1.00
Language : English
Audio #2
ID : 2
Format : AC-3
Format/Info : Audio Coding 3
Codec ID : A_AC3
Duration : 1h 46mn
Bit rate mode : Constant
Bit rate : 384 Kbps
Channel(s) : 6 channels
Channel positions : Front: L C R, Surround: L R, LFE
Sampling rate : 48.0 KHz
Stream size : 292 MiB (3%)
Language : Ukrainian
Audio #3
ID : 3
Format :
Format/Info : Digital Theater Systems
Codec ID : A_DTS
Duration : 1h 46mn
Bit rate mode : Constant
Bit rate : 1 510 Kbps
Channel(s) : 6 channels
Channel positions : Front: L C R, Surround: L R, LFE
Sampling rate : 48.0 KHz
Resolution : 24 bits
Video delay : 11ms
Stream size : 1.12 GiB (14%)
Title : Blu-ray
Language : English
Text #4
ID : 4
Format : UTF-8
Codec ID : S_TEXT/UTF8
Codec ID/Info : UTF-8 Plain Text
Language : English
Скріншоти





Джерело: & &
Особиста оцінка: 10/10


 Трекер:    Зареєстрований   

Завантажити / скачати фільм українською



відео для новачків



 Зареєстрований:   2012-01-25 15:33
 Розмір:   8.21 GB 
 Оцінка фільму:   10/10 (Голосів: 7)
   
Інші релізи
   Зараза / Епідемія страху / Contagion (2011) 2xUkr/Eng AngryBirdsUA  5 / 0   2.2 GB   2014-09-16 19:39 
   Зараза / Contagion (2011) 720p Ukr/Eng | Sub Ukr/Eng Dim-ON  4 / 0   5.24 GB   2012-04-01 19:50 
   Зараза / Contagion (2011) Vetal-XL  0 / 0   1.45 GB   2012-03-18 19:41 
   Зараза / Contagion (2011) |Ліцензія sstonecold1  10 / 0   1.8 GB   2012-01-24 22:04 
leroykendall 
Модератор HD


З нами з: 03.01.11
Востаннє: 20.11.16
Повідомлень: 749

2012-01-25 16:37  
Гість написано:
Зараза / Ukr/Eng | Sub Eng

Заголовок треба виправити.

Anonymous 







2012-01-25 17:26  
leroykendall
yep

natashelka 
VIP


З нами з: 23.05.10
Востаннє: 10.12.16
Повідомлень: 442

2012-05-06 17:15  
Цікавий фільм. Подивитись можна. А знаєте як виник вірус? Кнур з'їв кажана. На цю тему ще є двосерійний фільм Пандемія - теж присутній на толоці.

Ваш часовий пояс: GMT + 2 Години

Нова тема   Відповісти