Завантажити та скачати торренти українською


Без компромісів / Raw Deal (1986) 720p Ukr/Eng | Sub Eng

Нові коментарі

Нова тема   Відповісти
Автор Повідомлення
Віктор 
Відео Гуртом - субтитрування
Відео Гуртом - субтитрування


З нами з: 09.01.10
Востаннє: 05.12.16
Повідомлень: 8663

2012-01-24 19:18  
Без компромісів / Raw Deal (1986) 720p Ukr/Eng | Sub Eng


Без компромісів / Raw Deal (1986) 720p Ukr/Eng | Sub Eng

«His trigger has all the answers.»


Жанр: бойовик, кримінальний, трилер
Країна: США


Кіностудія / кінокомпанія: De Laurentiis Entertainment Group (DEG), Famous Films, International Film Corporation
Режисер: Джон Ірвін (John Irvin)
Бюджет - $8,500,000
Актори: Арнольд Шварценеґґер (Arnold Schwarzenegger), Кетрін Герольд (Kathryn Harrold), Даррен МакҐевін (Darren McGavin), Роберт Деві (Robert Davi), Бленш Бейкер (Blanche Baker), Ед Лейтер (Ed Lauter)

Сюжет:
Звільнений із ФБР за "надмірне застосування сили" агент Марко Камінські працює шерифом у маленькому містечку. Але коли знадобилася людина, щоб увійти до чиказької мафії, колишнє начальство Марка вирішило, що краще нього із цим завданням не впорається ніхто.
Марку доведеться діяти без усякої підтримки місцевої поліції, яка не здогадується про його таємну місію. Діючи сам супроти цілого гангстерського синдикату, Марко повинен схопити могутнього й жорстокого главу чиказької організованої злочинності.
У випадку успіху Марка проголосять героєм і відновлять на службі. Не звиклий відступати перед небезпекою, Марк охоче береться до роботи. Він повний рішучості "залізною рукою" навести порядок у Чикаго.
MediaInfo

Код:
General
Unique ID                        : 180287354364409341649537353728487405554 (0x87A214D9055CE2FAA5465A05F9DD37F2)
Complete name                    : D:\HURTOM\Raw Deal (1986) [Ukr, Eng] 720p [Hurtom].mkv
Format                           : Matroska
Format version                   : Version 2
File size                        : 7.06 GiB
Duration                         : 1h 45mn
Overall bit rate                 : 9 576 Kbps
Movie name                       : Raw Deal (1986) [Ukr, Eng] 720p [Hurtom]
Encoded date                     : UTC 2012-01-24 19:29:11
Writing application              : mkvmerge v5.0.1 ('Es ist Sommer') built on Oct  9 2011 11:55:43
Writing library                  : libebml v1.2.2 + libmatroska v1.3.0

Video
ID                               : 1
Format                           : AVC
Format/Info                      : Advanced Video Codec
Format profile                   : [email protected]
Format settings, CABAC           : Yes
Format settings, ReFrames        : 12 frames
Codec ID                         : V_MPEG4/ISO/AVC
Duration                         : 1h 45mn
Bit rate                         : 7 427 Kbps
Width                            : 1 280 pixels
Height                           : 540 pixels
Display aspect ratio             : 2.35:1
Frame rate                       : 24.000 fps
Color space                      : YUV
Chroma subsampling               : 4:2:0
Bit depth                        : 8 bits
Scan type                        : Progressive
Bits/(Pixel*Frame)               : 0.448
Stream size                      : 5.48 GiB (78%)
Title                            : Raw Deal (1986) [Ukr, Eng] 720p [Hurtom]
Writing library                  : core 102 r1666 d058f37
Encoding settings                : cabac=1 / ref=12 / deblock=1:-3:-3 / analyse=0x3:0x133 / me=umh / subme=10 / psy=1 / psy_rd=1.00:0.00 / mixed_ref=1 / me_range=48 / chroma_me=1 / trellis=2 / 8x8dct=1 / cqm=0 / deadzone=21,11 / fast_pskip=0 / chroma_qp_offset=-2 / threads=6 / sliced_threads=0 / nr=0 / decimate=1 / interlaced=0 / constrained_intra=0 / bframes=7 / b_pyramid=2 / b_adapt=2 / b_bias=0 / direct=1 / weightb=1 / open_gop=0 / weightp=2 / keyint=250 / keyint_min=25 / scenecut=40 / intra_refresh=0 / rc_lookahead=40 / rc=crf / mbtree=0 / crf=16.0 / qcomp=0.60 / qpmin=10 / qpmax=51 / qpstep=4 / vbv_maxrate=50000 / vbv_bufsize=62500 / crf_max=0.0 / ip_ratio=1.40 / pb_ratio=1.30 / aq=1:0.80 / nal_hrd=none
Language                         : English
Default                          : Yes
Forced                           : No

Audio #1
ID                               : 2
Format                           : AC-3
Format/Info                      : Audio Coding 3
Mode extension                   : CM (complete main)
Codec ID                         : A_AC3
Duration                         : 1h 45mn
Bit rate mode                    : Constant
Bit rate                         : 448 Kbps
Channel(s)                       : 6 channels
Channel positions                : Front: L C R, Side: L R, LFE
Sampling rate                    : 48.0 KHz
Bit depth                        : 16 bits
Compression mode                 : Lossy
Stream size                      : 338 MiB (5%)
Title                            : 5.1 @ 448 Kbps - двоголосий закадровий; Студія 1+1
Language                         : Ukrainian
Default                          : Yes
Forced                           : No

Audio #2
ID                               : 3
Format                           :
Format/Info                      : Digital Theater Systems
Codec ID                         : A_DTS
Duration                         : 1h 45mn
Bit rate mode                    : Constant
Bit rate                         : 1 510 Kbps
Channel(s)                       : 6 channels
Channel positions                : Front: L C R, Side: L R, LFE
Sampling rate                    : 48.0 KHz
Bit depth                        : 24 bits
Compression mode                 : Lossy
Stream size                      : 1.11 GiB (16%)
Title                            : 5.1 @ 1536 Kbps
Language                         : English
Default                          : No
Forced                           : No

Text
ID                               : 4
Format                           : UTF-8
Codec ID                         : S_TEXT/UTF8
Codec ID/Info                    : UTF-8 Plain Text
Language                         : English
Default                          : No
Forced                           : No

Menu
00:00:00.000                     : en:00:00:00.000
00:08:25.333                     : en:00:08:25.333
00:12:14.292                     : en:00:12:14.292
00:20:27.250                     : en:00:20:27.250
00:29:02.708                     : en:00:29:02.708
00:36:54.917                     : en:00:36:54.917
00:44:50.250                     : en:00:44:50.250
00:54:07.917                     : en:00:54:07.917
01:06:36.792                     : en:01:06:36.792
01:14:30.708                     : en:01:14:30.708
01:22:48.333                     : en:01:22:48.333
01:25:12.000                     : en:01:25:12.000
01:29:49.500                     : en:01:29:49.500
01:36:23.542                     : en:01:36:23.542
01:42:25.167                     : en:01:42:25.167
Всі наявні релізи

Завантажити:
720p Ukr/Eng | Sub Eng (7.06 GB) - двоголосий закадровий Студія 1+1
Ukr/Eng | Sub Eng (2.18 GB) - двоголосий закадровий Студія 1+1

Ролі озвучили: Георгій Гавриленко
Тривалість: 01:45:36
Якість: 720p (CRiSC)
Відео:
кодек:
розмір кадру: 1280х540
бітрейт: 7427 кб/с

Аудіо # 1:
мова: українська
переклад: двоголосий закадровий Студія 1+1 | усі чоловічі ролі озвучив Георгій Гавриленко
кодек: 5.1
бітрейт: 448 кб/с

Аудіо # 2:
мова: англійська
переклад: оригінал
кодек: 5.1
бітрейт: 1536 кб/с

Субтитри:
мова: англійська
тип: програмні (м'які)
формат: *.srt

Скріншоти:




За синхронізацію доріжки 5.1 подяка rooster-у,
за запис звуку з тб подяка olgaya і karvai0


Джерело: &
Особиста оцінка: 8


Срібний реліз (на рейтинг впливає 50% завантаженого)
 Трекер:    Зареєстрований   

Завантажити / скачати фільм українською



відео для новачків



 Зареєстрований:   2012-01-25 15:31
 Розмір:   7.06 GB 
 Оцінка фільму:   5.8/10 (Голосів: 5)
   
Інші релізи
   Без компромісів / Raw Deal (1986) sokeel  2 / 0   750 MB   2016-10-20 16:40 
   Без компромісів / Raw Deal (1986) Ukr/Eng | Sub Eng rooster  1 / 0   2.18 GB   2011-02-16 17:57 
richman 
Модератор субтитрованого


З нами з: 30.05.08
Востаннє: 06.12.16
Повідомлень: 1855

2012-01-24 22:20  
w2958l написано:
усі чоловічі ролі озвучив Георгій Гавриленко

круто! треба буде зацінити

yuxnovich 
Свій


З нами з: 08.11.08
Востаннє: 03.12.16
Повідомлень: 114

2012-01-25 16:51  
Питання до адміністрації .
Навколо картинки точична рамка,це помилка коду чи так задумано(браузер опера)

Sensetivity 
VIP


З нами з: 03.05.11
Востаннє: 03.01.13
Повідомлень: 2019

2012-01-25 17:08  
yuxnovich написано:
Навколо картинки точична рамка,це помилка коду чи так задумано(браузер опера)

Це означає що постер набагато більший, і якщо по ньому клікнути то він збільшиться.

yuxnovich 
Свій


З нами з: 08.11.08
Востаннє: 03.12.16
Повідомлень: 114

2012-01-25 18:52  
Зрозуміло,дякую!
MrRyanCooper 
VIP


З нами з: 23.08.12
Востаннє: 03.12.16
Повідомлень: 280

2016-05-18 20:00  
переклад: двоголосий закадровий Студія 1+1 - ICTV теж нажаль з 2-х голосою озвучкою транслювали, тож треба чекати або К1 або ж ТРК "УКРАЇНА"
Ваш часовий пояс: GMT + 2 Години

Нова тема   Відповісти