Завантажити та скачати торренти українською


Марія Бурмака - Марія (1991) [FLAC] | Folk / Pop Rock

Нові коментарі

Нова тема   Відповісти
Автор Повідомлення
ssTAss 
Модератор музики


З нами з: 05.07.08
Востаннє: 05.12.16
Повідомлень: 10939

2012-01-23 01:13  
Марія Бурмака - Марія (1991) [FLAC] | Folk / Pop Rock

Марія Бурмака - Марія (1991) [FLAC] | Folk / Pop Rock


Стиль: Vocal, Ballad, Folk
Країна, місто: Україна, Харків
Сайти: Офіційний сайт
Видавець: Yevshan Corporation
Виконавці:
Бурмака Марія Вікторівна
Пісні:
    1 - Верни до мене, пам'яте моя
    2 - Хто так тихо прийшов
    3 - Коли б ми плакати могли
    4 - Сонце на обрiї
    5 - Пам'яти тридцяти
    6 - Батькiвщинi
    7 - Мiсяцю-рогоженьку
    8 - Колискова
    9 - Пробудiться орли сизi!
    10 - Вiтер
    11 - Некопанi криницi
    12 - Я усмiхнусь тобi
    13 - Ой, поїхав в московщину
    14 - Страдальна мати
    15 - Ой, вербо, вербо
    16 - Ой, чия то рута-м'ята
    17 - А в Iвана
    18 - Ой, повiшу колисочку
    19 - Хтось близький приснився
    20 - Рекрутська
    21 - Козак вiд'їжджає...
log

Exact Audio Copy V0.99 prebeta 5 from 4. May 2009

Отчёт EAC об извлечении, выполненном 29. июня 2010, 1:03

Марія Бурмака / Марія

Дисковод: Optiarc DVD RW AD-7173S Adapter: 5 ID: 0

Режим чтения : Достоверность
Использование точного потока : Да
Отключение кэша аудио : Да
Использование указателей C2 : Нет

Коррекция смещения при чтении : 48
Способность читать области Lead-in и Lead-out : Нет
Заполнение пропущенных сэмплов тишиной : Да
Удаление блоков с тишиной в начале и конце : Нет
При вычислениях CRC использовались нулевые сэмплы : Да
Интерфейс : Встроенный Win32-интерфейс для Win NT/2000

Выходной формат : Внутренние WAV-операции
Формат сэмплов : 44.100 Гц; 16 бит; стерео

TOC извлечённого CD

Трек | Старт | Длительность | Начальный сектор | Конечный сектор
---------------------------------------------------------------------
1 | 0:00.00 | 2:10.40 | 0 | 9789
2 | 2:10.40 | 2:38.07 | 9790 | 21646
3 | 4:48.47 | 2:03.73 | 21647 | 30944
4 | 6:52.45 | 1:42.07 | 30945 | 38601
5 | 8:34.52 | 1:33.58 | 38602 | 45634
6 | 10:08.35 | 1:33.17 | 45635 | 52626
7 | 11:41.52 | 2:03.35 | 52627 | 61886
8 | 13:45.12 | 1:58.23 | 61887 | 70759
9 | 15:43.35 | 1:28.52 | 70760 | 77411
10 | 17:12.12 | 1:51.45 | 77412 | 85781
11 | 19:03.57 | 2:21.10 | 85782 | 96366
12 | 21:24.67 | 2:58.30 | 96367 | 109746
13 | 24:23.22 | 1:48.73 | 109747 | 117919
14 | 26:12.20 | 2:15.65 | 117920 | 128109
15 | 28:28.10 | 2:47.52 | 128110 | 140686
16 | 31:15.62 | 1:29.10 | 140687 | 147371
17 | 32:44.72 | 1:44.00 | 147372 | 155171
18 | 34:28.72 | 1:33.00 | 155172 | 162146
19 | 36:01.72 | 1:19.60 | 162147 | 168131
20 | 37:21.57 | 2:23.50 | 168132 | 178906
21 | 39:45.32 | 2:47.48 | 178907 | 191479

Характеристики диапазона извлечения и сообщения об ошибках

Выбранный диапазон

Имя файла C:\Users\Женя\Desktop\Марія Бурмака - Марія (1991)\Марія Бурмака - Марія.wav

Пиковый уровень 92.5 %
Качество диапазона 100.0 %
CRC теста 37E878B3
CRC копии 37E878B3
Копирование... OK

Ошибок не произошло

AccurateRip: сводка

Трек 1 нет в базе данных
Трек 2 нет в базе данных
Трек 3 нет в базе данных
Трек 4 нет в базе данных
Трек 5 нет в базе данных
Трек 6 нет в базе данных
Трек 7 нет в базе данных
Трек 8 нет в базе данных
Трек 9 нет в базе данных
Трек 10 нет в базе данных
Трек 11 нет в базе данных
Трек 12 нет в базе данных
Трек 13 нет в базе данных
Трек 14 нет в базе данных
Трек 15 нет в базе данных
Трек 16 нет в базе данных
Трек 17 нет в базе данных
Трек 18 нет в базе данных
Трек 19 нет в базе данных
Трек 20 нет в базе данных
Трек 21 нет в базе данных

Ни одного трека нет в базе AccurateRip

Конец отчёта
fooCDtect

fooCDtect - foobar2000 + auCDtect, baralgin.

auCDtect: CD records authenticity detector, version 0.8.2
Copyright (c) 2004 Oleg Berngardt. All rights reserved.
Copyright (c) 2004 Alexander Djourik. All rights reserved.

mode: 0

=======================================================
Track: 01 - Верни до мене пам'яте моя
Quality: CDDA, 100%
=======================================================
Track: 02 - Хто так тихо прийшов
Quality: CDDA, 100%
=======================================================
Track: 03 - Коли б ми плакати могли
Quality: CDDA, 100%
=======================================================
Track: 04 - Сонце на обрiї
Quality: CDDA, 100%
=======================================================
Track: 05 - Пам'яти тридцяти
Quality: CDDA, 100%
=======================================================
Track: 06 - Батькiвщинi
Quality: CDDA, 100%
=======================================================
Track: 07 - Мiсяцю-рогоженьку
Quality: CDDA, 100%
=======================================================
Track: 08 - Колискова
Quality: CDDA, 100%
=======================================================
Track: 09 - Пробудiться орли сизi!
Quality: CDDA, 100%
=======================================================
Track: 10 - Вітер
Quality: CDDA, 100%
=======================================================
Track: 11 - Некопанi криницi
Quality: CDDA, 100%
=======================================================
Track: 12 - Я усмiхнусь тобi
Quality: CDDA, 92%
=======================================================
Track: 13 - Ой, поїхав в Московщину
Quality: CDDA, 100%
=======================================================
Track: 14 - Страдальна мати
Quality: CDDA, 100%
=======================================================
Track: 15 - Ой, вербо, вербо
Quality: CDDA, 100%
=======================================================
Track: 16 - Ой, чия то рута-м'ята
Quality: CDDA, 100%
=======================================================
Track: 17 - А в Iвана
Quality: CDDA, 99%
=======================================================
Track: 18 - Ой, повiшу колисочку
Quality: CDDA, 100%
=======================================================
Track: 19 - Хтось близький приснився
Quality: CDDA, 100%
=======================================================
Track: 20 - Рекрутська
Quality: CDDA, 100%
=======================================================
Track: 21 - Козак вiд'їжджає...
Quality: CDDA, 99%
=======================================================
Тривалість: 00:42:33
Мова: українська
Аудіо-кодек: FLAC
Бітрейт: 637 кб/с
Джерело: інший трекер
Додаткова інформація:
Марія Бурмака була серед тих, завдяки кому багато в чому й виникла сучасна українська популярна музика, а окрім того її пісні, зокрема, і допомогли сформувати український контекст у тому, що прийнято називати world music.


Якщо Ви справді бажаєте підтримати українське - після прослуховування, якщо музика вам сподобалась,
придбайте ліцензійний диск.
Підтримаймо вітчизняних виконавців!


Срібний реліз (на рейтинг впливає 50% завантаженого)
 Трекер:    Зареєстрований   

Завантажити / скачати українську музику



відео для новачків



 Зареєстрований:   2012-01-23 01:13
 Розмір:   202 MB 
 Оцінка музики:   7.5/10 (Голосів: 11)
   
Lev 
VIP


З нами з: 14.10.09
Востаннє: 28.11.16
Повідомлень: 1819

2012-01-28 10:32  
ого який раритет.
заберу трохи згодом.

Ваш часовий пояс: GMT + 2 Години

Нова тема   Відповісти