Завантажити та скачати торренти українською


Дім марень / Dream House (2011) 720p-mini | Line

Нові коментарі

Нова тема   Відповісти
Останній раз роздавалося oleh_oleh (2016-12-08)
Автор Повідомлення
oleh_oleh 
Свій


З нами з: 05.05.11
Востаннє: 06.12.16
Повідомлень: 67

2012-01-20 10:36  
Дім марень / Dream House (2011) 720p-mini | Line

Дім марень / Dream House (2011) 720p-mini | Line


Жанр: трилер, драма, містика
Країна: США



Кіностудія / кінокомпанія: Cliffjack Motion Pictures, Morgan Creek Productions
Режисер: Джим Шерідан
Актори: Деніел Крейґ, Наомі Уотс, Рейчел Вайз, Клер Ґір, Тейлор Ґір

Сюжет:
Заможний видавець зі своєю дружиною і двома дочками переїжджають до тихого провінційного містечка, яке на перевірку виявляється не таким вже й тихим. Не без допомоги сусідки сімейство дізнається, що їх будинок став місцем жорстокого вбивства, а злочинець досі розгулює на волі.


Тривалість: 01:30:50
Якість:
Формат: MKV

Відео:
кодек:
розмір кадру: 1280 Х 544
бітрейт: 3064 кб/с

Аудіо Skiff :
мова: українська
переклад: професійний дубльований
кодек: 2.0
бітрейт: 384 кб/с
Mediainfo

Format : Matroska
File size : 2.19 GiB
Duration : 1h 30mn
Overall bit rate : 3 454 Kbps
Movie name : Rip by Blo
Encoded date : UTC 2012-01-20 06:29:35
Writing application : mkvmerge v4.2.0 ('No Talking') збірка від Jul 28 2010 18:38:23
Writing library : libebml v1.0.0 + libmatroska v1.0.0

Video
ID : 1
Format : AVC
Format/Info : Advanced Video Codec
Format profile : [email protected]
Format settings, CABAC : Yes
Format settings, ReFrames : 4 frames
Codec ID : V_MPEG4/ISO/AVC
Duration : 1h 30mn
Bit rate : 3 069 Kbps
Width : 1 280 pixels
Height : 544 pixels
Display aspect ratio : 2.35:1
Original display aspect ratio : 2.35:1
Frame rate : 23.976 fps
Color space : YUV
Chroma subsampling : 4:2:0
Bit depth : 8 bits
Scan type : Progressive
Bits/(Pixel*Frame) : 0.184
Stream size : 1.90 GiB (87%)
Title : Дім марень
Writing library : core 116 r2074 2641b9e
Encoding settings : cabac=1 / ref=4 / deblock=1:0:0 / analyse=0x3:0x133 / me=hex / subme=6 / psy=1 / psy_rd=1.00:0.00 / mixed_ref=1 / me_range=16 / chroma_me=1 / trellis=1 / 8x8dct=1 / cqm=0 / deadzone=21,11 / fast_pskip=1 / chroma_qp_offset=-2 / threads=6 / sliced_threads=0 / nr=0 / decimate=1 / interlaced=0 / bluray_compat=0 / constrained_intra=0 / bframes=3 / b_pyramid=2 / b_adapt=2 / b_bias=0 / direct=1 / weightb=1 / open_gop=0 / weightp=2 / keyint=250 / keyint_min=23 / scenecut=40 / intra_refresh=0 / rc_lookahead=40 / rc=2pass / mbtree=1 / bitrate=3069 / ratetol=1.0 / qcomp=0.60 / qpmin=0 / qpmax=69 / qpstep=4 / cplxblur=20.0 / qblur=0.5 / ip_ratio=1.40 / aq=1:1.00
Language : English

Audio
ID : 2
Format : AC-3
Format/Info : Audio Coding 3
Format profile : Dolby Digital
Mode extension : CM (complete main)
Codec ID : A_AC3
Duration : 1h 30mn
Bit rate mode : Constant
Bit rate : 384 Kbps
Channel(s) : 2 channels
Channel positions : Front: L R
Sampling rate : 48.0 KHz
Bit depth : 16 bits
Compression mode : Lossy
Stream size : 249 MiB (11%)
Cкріншоти



Особиста оцінка: 6 - третій сорт - не брак


 Трекер:    Зареєстрований   

Завантажити / скачати фільм українською



відео для новачків



 Зареєстрований:   2012-01-20 10:36
 Розмір:   2.19 GB 
 Оцінка фільму:   8.7/10 (Голосів: 17)
   
Інші релізи
   Дім марень / Dream House (2011) patriot2305  7 / 0   1.45 GB   2015-08-02 16:26 
   Дім марень / Dream House (2011) 2xUkr patriot2305  2 / 0   1.58 GB   2012-11-02 23:45 
   Дім марень / Dream House (2011) 720p Anonymous  1 / 0   3.65 GB   2011-12-16 11:24 
leroykendall 
Модератор HD


З нами з: 03.01.11
Востаннє: 20.11.16
Повідомлень: 749

2012-01-20 11:54  
Скріншоти повинні бути у форматі PNG.
І чому розмір скріншотів 1920 × 817?

Додано через 57 секунд:

І додайте ще, будь ласка, MediaInfo.

DiGen 
Модератор HD та координатор Команди HD
Модератор HD та координатор Команди HD


З нами з: 12.11.09
Востаннє: 24.06.13
Повідомлень: 1452

2012-01-20 13:00  
Чому МедіаІнфо не повне?
leroykendall 
Модератор HD


З нами з: 03.01.11
Востаннє: 20.11.16
Повідомлень: 749

2012-01-20 13:08  
І ще одне. Додайте в заголовок та тему "-mini" та пробіли:
" 720p-mini | Line"
щоб не було плутанини з іншим 720p релізом http://toloka.to/t31037

skuline 
Свій


З нами з: 17.12.11
Востаннє: 07.12.16
Повідомлень: 114

2013-05-07 14:19  
Класний фільм , реально 9 балів з 10
Seriy100293 
VIP


З нами з: 17.08.11
Востаннє: 04.09.16
Повідомлень: 307

2013-05-09 21:14  
Ще б роздавало побільше людей...
Maters 
VIP


З нами з: 27.03.12
Востаннє: 07.12.16
Повідомлень: 1162

2014-04-14 14:14  
Спочатку здалось, що фільм не дуже, бо схожі вже бачив
В "Таємне вікно", "Гриби" і ін. головний герой теж не знав, що коїться навкруги і в тому числі з ним самим
Але я дивуюсь рейтингу IMDd, оскільки фільм дуже навіть пристойний, принаймні мені сподобався. Дякую!

Ваш часовий пояс: GMT + 2 Години

Нова тема   Відповісти