Завантажити та скачати торренти українською


Програвання відео на ТВ

Нові коментарі

Нова тема   Відповісти
Автор Повідомлення
taburyak 
Новенький


З нами з: 07.12.10
Востаннє: 01.12.16
Повідомлень: 19

2012-01-19 09:58  
Вітаю шановні!

До телевізора LG 32LK530 під'єдную по USB пристрій, чи то флешку, чи то зовнішній вінчестер для перегляду фільмів вбудованим в ТБ програвачем медіа. Є такі відео файли які не можуть програватися на ТБ - "неправильний файл", а є подібного формату, але з успіхом програються вбудованим програвачем. І я не можу зрозуміти в чому різниця між тим файлом, який не програється і програється.
Я не фахівець в цьому питанні, але як спеціаліст дасть пораду, в чому заковика і як перекодувати "неправильні файли" у правильні буду дуже вдячним. Нижче даю інформацію про правильний і неправильний файл.

Ось інформація щодо файлу який "неправильний файл"

General
Unique ID : 191222572517231386944727007305197272998 (0x8FDC20BA796136BF92DAB08D8C65BFA6)
Complete name : D:\video\Angels & Demons(2009) 720p[Hurtom].mkv
Format : Matroska
File size : 4.31 GiB
Duration : 2h 26mn
Overall bit rate : 4 216 Kbps
Encoded date : UTC 2011-11-05 22:33:40
Writing application : mkvmerge v4.5.0 ('Speed of Light') зібрано Feb 16 2011 11:08:59
Writing library : libebml v1.2.0 + libmatroska v1.1.0

Video
ID : 1
Format : AVC
Format/Info : Advanced Video Codec
Format profile : [email protected]
Format settings, CABAC : Yes
Format settings, ReFrames : 4 frames
Muxing mode : Header stripping
Codec ID : V_MPEG4/ISO/AVC
Duration : 2h 26mn
Bit rate : 3 575 Kbps
Width : 1 280 pixels
Height : 532 pixels
Display aspect ratio : 2.40:1
Frame rate mode : Variable
Frame rate : 23.976 fps
Color space : YUV
Chroma subsampling : 4:2:0
Bit depth : 8 bits
Scan type : Progressive
Bits/(Pixel*Frame) : 0.219
Stream size : 3.57 GiB (83%)
Writing library : core 112
Encoding settings : cabac=1 / ref=2 / deblock=1:0:0 / analyse=0x1:0x111 / me=hex / subme=6 / psy=1 / psy_rd=1,00:0,00 / mixed_ref=0 / me_range=16 / chroma_me=1 / trellis=0 / 8x8dct=0 / cqm=0 / deadzone=21,11 / fast_pskip=1 / chroma_qp_offset=-2 / threads=9 / sliced_threads=0 / nr=0 / decimate=1 / interlaced=0 / constrained_intra=0 / bframes=2 / b_pyramid=2 / b_adapt=1 / b_bias=0 / direct=1 / weightb=0 / open_gop=0 / weightp=2 / keyint=240 / keyint_min=23 / scenecut=40 / intra_refresh=0 / rc_lookahead=40 / rc=2pass / mbtree=1 / bitrate=3575 / ratetol=1,0 / qcomp=0,60 / qpmin=3 / qpmax=51 / qpstep=4 / cplxblur=20,0 / qblur=0,5 / ip_ratio=1,40 / aq=1:1,00
Language : English
Color primaries : BT.709-5, BT.1361, IEC 61966-2-4, SMPTE RP177
Transfer characteristics : BT.709-5, BT.1361
Matrix coefficients : BT.709-5, BT.1361, IEC 61966-2-4 709, SMPTE RP177

Audio
ID : 2
Format : AC-3
Format/Info : Audio Coding 3
Mode extension : CM (complete main)
Muxing mode : Header stripping
Codec ID : A_AC3
Duration : 2h 26mn
Bit rate mode : Constant
Bit rate : 640 Kbps
Channel(s) : 6 channels
Channel positions : Front: L C R, Side: L R, LFE
Sampling rate : 48.0 KHz
Bit depth : 16 bits
Compression mode : Lossy
Stream size : 670 MiB (15%)
Language : Ukrainian

Text
ID : 3
Format : PGS
Muxing mode : zlib
Codec ID : S_HDMV/PGS
Codec ID/Info : The same subtitle format used on BDs/HD-DVDs
Language : Ukrainian

А ось який з успіхом програється:

General
Unique ID : 194822081603617010748753320067923311885 (0x92915E3A69F7DCF88D9D0ECDD62DFD0D)
Complete name : D:\video\Super.8.2011..720p.Ukr.Eng\Super.8.2011..720p.Ukr.mkv
Format : Matroska
File size : 4.59 GiB
Duration : 1h 51mn
Overall bit rate : 5 873 Kbps
Encoded date : UTC 2011-10-22 15:17:02
Writing application : mkvmerge v5.0.1 ('Es ist Sommer') built on Oct 9 2011 11:55:43
Writing library : libebml v1.2.2 + libmatroska v1.3.0

Video
ID : 1
Format : AVC
Format/Info : Advanced Video Codec
Format profile : [email protected]
Format settings, CABAC : Yes
Format settings, ReFrames : 12 frames
Codec ID : V_MPEG4/ISO/AVC
Duration : 1h 51mn
Bit rate : 5 488 Kbps
Width : 1 280 pixels
Height : 534 pixels
Display aspect ratio : 2.35:1
Frame rate : 23.976 fps
Color space : YUV
Chroma subsampling : 4:2:0
Bit depth : 8 bits
Scan type : Progressive
Bits/(Pixel*Frame) : 0.335
Stream size : 4.20 GiB (91%)
Writing library : core 116 r2074 2641b9e
Encoding settings : cabac=1 / ref=12 / deblock=1:-3:-3 / analyse=0x3:0x133 / me=umh / subme=10 / psy=1 / psy_rd=0.90:0.00 / mixed_ref=1 / me_range=48 / chroma_me=1 / trellis=2 / 8x8dct=1 / cqm=0 / deadzone=21,11 / fast_pskip=0 / chroma_qp_offset=-2 / threads=6 / sliced_threads=0 / nr=0 / decimate=0 / interlaced=0 / bluray_compat=0 / constrained_intra=0 / bframes=7 / b_pyramid=2 / b_adapt=2 / b_bias=0 / direct=3 / weightb=1 / open_gop=0 / weightp=2 / keyint=360 / keyint_min=2 / scenecut=40 / intra_refresh=0 / rc_lookahead=60 / rc=2pass / mbtree=1 / bitrate=5488 / ratetol=1.0 / qcomp=0.65 / qpmin=0 / qpmax=69 / qpstep=4 / cplxblur=20.0 / qblur=0.5 / ip_ratio=1.40 / aq=2:0.90
Language : English

Audio
ID : 2
Format : AC-3
Format/Info : Audio Coding 3
Format profile : Dolby Digital
Mode extension : CM (complete main)
Codec ID : A_AC3
Duration : 1h 51mn
Bit rate mode : Constant
Bit rate : 384 Kbps
Channel(s) : 2 channels
Channel positions : Front: L R
Sampling rate : 48.0 KHz
Bit depth : 16 bits
Compression mode : Lossy
Delay relative to video : 8ms
Stream size : 307 MiB (7%)
Title : Український професійний дубльований переклад - LINE [ 2.0; 384 кб/с ]
Language : Ukrainian
Sensetivity 
VIP


З нами з: 03.05.11
Востаннє: 03.01.13
Повідомлень: 2019

2012-01-19 10:06  
Цитата:
Muxing mode : Header stripping

стиснені заголовки.
Якщо цей файл переміксувати без цієї опції ящик має почитати.
P.S.
ТВ - Телевидение
ТБ - Телебачення
imonko 
Відео Гуртом - фільмокрай
Відео Гуртом - фільмокрай


З нами з: 20.07.08
Востаннє: 31.10.16
Повідомлень: 7309

2012-01-19 10:08  
мо через це
taburyak написано:
Muxing mode : Header stripping
taburyak 
Новенький


З нами з: 07.12.10
Востаннє: 01.12.16
Повідомлень: 19

2012-01-19 10:47  
Sensetivity написано:

стиснені заголовки.
Якщо цей файл переміксувати без цієї опції ящик має почитати.


Дякую, але будь ласка, дайте більш розгорнуту відповідь, яким софтом переміксувати?

Sensetivity написано:

ТВ - Телевидение
ТБ - Телебачення


Дякую за підказку, взяв до уваги.
Sensetivity 
VIP


З нами з: 03.05.11
Востаннє: 03.01.13
Повідомлень: 2019

2012-01-19 11:10  
taburyak написано:
Дякую, але будь ласка, дайте більш розгорнуту відповідь, яким софтом переміксувати?

http://toloka.to/t17914
Тут власне про вашу проблему, і як налаштувати софт, щоб її нестало:
http://toloka.to/t31095
Починаючи з 4.4.0 та фігня виключена по дофолту.
Тому качайте саму свіжу версію і переміксофуйте.
taburyak 
Новенький


З нами з: 07.12.10
Востаннє: 01.12.16
Повідомлень: 19

2012-01-19 12:27  
Sensetivity написано:
Тут власне про вашу проблему, і як налаштувати софт, щоб її нестало:

О! Дякую. Допомогло. Дуже Вам вдячний.
Ваш часовий пояс: GMT + 2 Години

Нова тема   Відповісти