Завантажити та скачати торренти українською


Халк і Неймовірний Халк / Hulk & The Incredible Hulk (2003-2008) 720p Ukr/Eng | Sub Multi

Нові коментарі

Нова тема   Відповісти
Автор Повідомлення
leroykendall 
Модератор HD


З нами з: 03.01.11
Востаннє: 20.11.16
Повідомлень: 749

2012-01-18 18:35  
Халк і Неймовірний Халк / Hulk & The Incredible Hulk (2003-2008) 720p Ukr/Eng | Sub Multi

Халк і Неймовірний Халк / Hulk & The Incredible Hulk (2003-2008) 720p Ukr/Eng | Sub Multi
Халк / Hulk (2003) 720p Ukr/Eng | Sub Multi

Халк / Hulk (2003) 720p Ukr/Eng | Sub Multi

Халк і Неймовірний Халк / Hulk & The Incredible Hulk (2003-2008) 720p Ukr/Eng | Sub Multi

«Rage. Power. Freedom.»


Жанр: бойовик, фантастика
Країна: США






Кіностудія / кінокомпанія: Universal Pictures, Marvel Enterprises, Valhalla Motion Pictures
Режисер: Енг Лі (Ang Lee)
Актори: Ерік Бана (Eric Bana), Дженніфер Коннеллі (Jennifer Connelly), Сем Елліотт (Sam Elliott), Джош Лукас (Josh Lucas), Нік Нолті (Nick Nolte), Пол Керсі (Paul Kersey), Кара Буоно (Cara Buono)

Сюжет 1:
Брюс Бенер - людина без минулого. Підібраний дитиною, вона не знає нічого про своїх батьків. Охоплений кошмарами й глузуваннями однокласників, Брюс бореться із припадками занепокоєння й гніву. Працюючи вченим в області генетики й вивчаючи регенеративні ефекти гамма-випромінювання на ушкоджену тканину, Брюс постійно бореться з якимсь монстром всередині себе. Але один раз, у результаті нещасного випадку в лабораторії, внутрішній конфлікт Брюса досягає апогею, і він стає найдужчою істотою на Землі - Халком. Генерал "Тандерболт" Росс, з підтримкою армії танків, вертольотів і солдатів, виношує плани знищення сильного й постійно зростаючого Халка. Тим часом Бенер закохується в дочку генерала Росса, Бетті, й намагається розкрити таємницю свого минулого...


Сюжет 2:
Екранізація знаменитого американського коміксу про студента, що брав участь у секретній військовій програмі по створенню речовини, що змінює клітини людини. У результаті він став перетворюватися у величезного монстра щораз, як тільки хтось виводив його із щиросердечної рівноваги. Доктор Брюс Бенер (учений, що працює над винаходом нової бомби) піддався впливу гамма-променів і перетворився у Халка - істота неймовірної фізичної сили, що у стані люті стає величезним зеленим монстром. Його переслідують військові під керуванням генерала Роса. Йому доводиться бігти через всю країну. Зрештою, у нього виникає любовна історія з генеральською дочкою Бетті...


Тривалість: 02:18:13
Якість: 720p
Відео:
кодек:
розмір кадру: 1280 x 694
бітрейт: 5209 кб/с

Аудіо # 1:
мова: українська
переклад: професійний дубльований
кодек: 2.0
бітрейт: 224 кб/с

Аудіо # 2:
мова: англійська
переклад: оригінал
кодек: 5.1
бітрейт: 1536 кб/с

Аудіо # 3:
мова: англійська
переклад: коментарі
кодек: OGG 2.0
бітрейт: 80 кб/с

Джерело озвучення:


Субтитри:
мова: англійська, чеська, датська, голандська, фінська, французська, німецька, італійська, норвезька, польська, португальська, словенська, іспанська, шведська
тип: програмні (м'які)
формат: *.srt
MediaInfo
General
Complete name : V:\Hulk. Dilogy (2003-2008) [Ukr, Eng] 720p [Hurtom, HDClub] by leroykendall\Hulk (2003) [Ukr, Eng] 720p [Hurtom, HDClub] by leroykendall.mkv
Format : Matroska
File size : 6.77 GiB
Duration : 2h 18mn
Overall bit rate : 7 011 Kbps
Movie name : Hulk (2003) [Ukr, Eng] 720p [Hurtom, HDClub] by leroykendall
Encoded date : UTC 2012-01-14 23:07:05
Writing application : mkvmerge v4.9.1 ('Ich will') зібрано Jul 11 2011 23:53:15
Writing library : libebml v1.2.1 + libmatroska v1.1.1

Video
ID : 1
Format : AVC
Format/Info : Advanced Video Codec
Format profile : [email protected]
Format settings, CABAC : Yes
Format settings, ReFrames : 5 frames
Muxing mode : Container [email protected]
Codec ID : V_MPEG4/ISO/AVC
Duration : 2h 18mn
Bit rate : 5 058 Kbps
Nominal bit rate : 5 209 Kbps
Width : 1 280 pixels
Height : 694 pixels
Display aspect ratio : 16:9
Frame rate : 23.976 fps
Resolution : 24 bits
Colorimetry : 4:2:0
Scan type : Progressive
Bits/(Pixel*Frame) : 0.237
Stream size : 4.88 GiB (72%)
Title : Release for HDCLUB
Writing library : core 61 r965M 3d2983d
Encoding settings : cabac=1 / ref=5 / deblock=1:-3:-3 / analyse=0x3:0x133 / me=umh / subme=7 / psy_rd=1.0:1.0 / brdo=1 / mixed_ref=1 / me_range=24 / chroma_me=1 / trellis=2 / 8x8dct=1 / cqm=0 / deadzone=21,11 / chroma_qp_offset=-4 / threads=6 / nr=0 / decimate=1 / mbaff=0 / bframes=5 / b_pyramid=1 / b_adapt=2 / b_bias=0 / direct=3 / wpredb=1 / bime=1 / keyint=250 / keyint_min=25 / scenecut=40(pre) / rc=2pass / bitrate=5209 / ratetol=1.0 / qcomp=1.00 / qpmin=10 / qpmax=51 / qpstep=4 / cplxblur=20.0 / qblur=0.5 / ip_ratio=1.40 / pb_ratio=1.30 / aq=2:1.00

Audio #1
ID : 2
Format : AC-3
Format/Info : Audio Coding 3
Codec ID : A_AC3
Duration : 2h 18mn
Bit rate mode : Constant
Bit rate : 224 Kbps
Channel(s) : 2 channels
Channel positions : L R
Sampling rate : 48.0 KHz
Stream size : 221 MiB (3%)
Title : 2.0 @ 224 kbps - Дубльований
Language : Ukrainian

Audio #2
ID : 3
Format :
Format/Info : Digital Theater Systems
Codec ID : A_DTS
Duration : 2h 18mn
Bit rate mode : Constant
Bit rate : 1 510 Kbps
Channel(s) : 6 channels
Channel positions : Front: L C R, Surround: L R, LFE
Sampling rate : 48.0 KHz
Resolution : 24 bits
Stream size : 1.46 GiB (22%)
Title : 5.1 @ 1536 kbps

Audio #3
ID : 4
Format : Vorbis
Format settings, Floor : 1
Codec ID : A_VORBIS
Duration : 2h 18mn
Bit rate mode : Constant
Bit rate : 80.0 Kbps
Channel(s) : 2 channels
Sampling rate : 48.0 KHz
Resolution : 16 bits
Stream size : 79.1 MiB (1%)
Title : Commentary - Vorbis 2.0
Writing library : libVorbis 1.2 (UTC 2007-06-22)

Text #1
ID : 5
Format : UTF-8
Codec ID : S_TEXT/UTF8
Codec ID/Info : UTF-8 Plain Text

Text #2
ID : 6
Format : UTF-8
Codec ID : S_TEXT/UTF8
Codec ID/Info : UTF-8 Plain Text
Language : Czech

Text #3
ID : 7
Format : UTF-8
Codec ID : S_TEXT/UTF8
Codec ID/Info : UTF-8 Plain Text
Language : Danish

Text #4
ID : 8
Format : UTF-8
Codec ID : S_TEXT/UTF8
Codec ID/Info : UTF-8 Plain Text
Language : Dutch

Text #5
ID : 9
Format : UTF-8
Codec ID : S_TEXT/UTF8
Codec ID/Info : UTF-8 Plain Text
Language : Finnish

Text #6
ID : 10
Format : UTF-8
Codec ID : S_TEXT/UTF8
Codec ID/Info : UTF-8 Plain Text
Language : French

Text #7
ID : 11
Format : UTF-8
Codec ID : S_TEXT/UTF8
Codec ID/Info : UTF-8 Plain Text
Language : German

Text #8
ID : 12
Format : UTF-8
Codec ID : S_TEXT/UTF8
Codec ID/Info : UTF-8 Plain Text
Language : Italian

Text #9
ID : 13
Format : UTF-8
Codec ID : S_TEXT/UTF8
Codec ID/Info : UTF-8 Plain Text
Language : Norwegian

Text #10
ID : 14
Format : UTF-8
Codec ID : S_TEXT/UTF8
Codec ID/Info : UTF-8 Plain Text
Language : Polish

Text #11
ID : 15
Format : UTF-8
Codec ID : S_TEXT/UTF8
Codec ID/Info : UTF-8 Plain Text
Language : Portuguese

Text #12
ID : 16
Format : UTF-8
Codec ID : S_TEXT/UTF8
Codec ID/Info : UTF-8 Plain Text
Language : Slovenian

Text #13
ID : 17
Format : UTF-8
Codec ID : S_TEXT/UTF8
Codec ID/Info : UTF-8 Plain Text
Language : Spanish

Text #14
ID : 18
Format : UTF-8
Codec ID : S_TEXT/UTF8
Codec ID/Info : UTF-8 Plain Text
Language : Swedish
Скріншоти:




Неймовірний Халк / The Incredible Hulk (2008) 720p Ukr/Eng | Sub Multi

Неймовірний Халк / The Incredible Hulk (2008) 720p Ukr/Eng | Sub Multi

Халк і Неймовірний Халк / Hulk & The Incredible Hulk (2003-2008) 720p Ukr/Eng | Sub Multi

«You'll like him when he's angry.»


Жанр: бойовик, фантастика
Країна: США






Кіностудія / кінокомпанія: Universal Pictures, Marvel Enterprises, Marvel Studios
Режисер: Louis Leterrier
Актори: Едвард Нортон (Edward Norton), Лів Тайлер (Liv Tyler), Тім Рот (Tim Roth), Тім Блейк Нельсон (Tim Blake Nelson), Ті Баррелл (Ty Burrell), Вільям Херт (William Hurt), Крістіна Сабот (Christina Cabot), Пітер Менса (Peter Mensah), Лу Ферріньо (Lou Ferrigno), Пол Соулз (Paul Soles)

Сюжет:
Після невдалого експерименту по створенню досконалого солдата вчений Брюс Бенер мутує, перетворюючись на зелене чудовисько Халка при гніві. Брюс ховається від армії США, яка вважає його своєю власністю. Він ховається в бразильських фавел, постійно перевіряє свій пульс. Одного разу він робить помилку і генерал Росс виходить на його слід, посилаючи загін майора Блонські. Всіх бійців крім командира чудовисько Халк вбиває, кулі його не беруть. Блонські вводять невелику дозу препарату, через якого Брюс став монстром, і той іде на ризик при черговому зіткненні з Халком і отримує травму, від якої незабаром виліковується. Блонські цього здається мало і він змушує доктора Стернса ввести йому ще більшу дозу. Через це він перетворюється на чудовисько, для нейтралізації якого посилають спійманого Брюса.


Тривалість: 01:52:14
Якість:
Відео:
кодек:
розмір кадру: 1280 x 544
бітрейт: 6732 кб/с

Аудіо # 1:
мова: українська | Line
переклад: професійний дубльований
кодек: 5.1
бітрейт: 448 кб/с

Аудіо # 2:
мова: англійська
переклад: оригінал
кодек: 5.1
бітрейт: 1536 кб/с

Аудіо # 3:
мова: англійська
переклад: коментарі
кодек: OGG 2.0
бітрейт: 80 кб/с

Субтитри:
мова: українська
тип: програмні (м'які)
формат: *.srt

Субтитри:
мова: англійська, шведська, фінська, норвезька, датська, голандська, французська, турецька
тип: програмні (м'які)
формат: *.ass
MediaInfo
General
Complete name : V:\Hulk. Dilogy (2003-2008) [Ukr, Eng] 720p [Hurtom, HDClub] by leroykendall\The Incredible Hulk (2008) [Ukr, Eng] 720p [Hurtom, HDClub] by leroykendall.mkv
Format : Matroska
File size : 6.88 GiB
Duration : 1h 52mn
Overall bit rate : 8 764 Kbps
Movie name : The Incredible Hulk (2008) [Ukr, Eng] 720p [Hurtom, HDCLUB] by leroykendall
Encoded date : UTC 2012-01-17 23:49:08
Writing application : mkvmerge v4.9.1 ('Ich will') зібрано Jul 11 2011 23:53:15
Writing library : libebml v1.2.1 + libmatroska v1.1.1
Cover : Yes / Yes / Yes

Video
ID : 1
Format : AVC
Format/Info : Advanced Video Codec
Format profile : [email protected]
Format settings, CABAC : Yes
Format settings, ReFrames : 5 frames
Muxing mode : Container [email protected]
Codec ID : V_MPEG4/ISO/AVC
Duration : 1h 52mn
Bit rate : 6 552 Kbps
Nominal bit rate : 6 732 Kbps
Width : 1 280 pixels
Height : 544 pixels
Display aspect ratio : 2.35:1
Frame rate : 23.976 fps
Resolution : 24 bits
Colorimetry : 4:2:0
Scan type : Progressive
Bits/(Pixel*Frame) : 0.392
Stream size : 5.14 GiB (75%)
Title : Release for HDCLUB
Writing library : core 65 r999M cc51047
Encoding settings : cabac=1 / ref=5 / deblock=1:-3:-3 / analyse=0x3:0x133 / me=umh / subme=9 / psy_rd=0.8:0.8 / mixed_ref=1 / me_range=16 / chroma_me=1 / trellis=2 / 8x8dct=1 / cqm=2 / deadzone=21,11 / chroma_qp_offset=-4 / threads=3 / nr=0 / decimate=1 / mbaff=0 / bframes=3 / b_pyramid=1 / b_adapt=2 / b_bias=0 / direct=1 / wpredb=1 / keyint=250 / keyint_min=25 / scenecut=40(pre) / rc=2pass / bitrate=6732 / ratetol=1.0 / qcomp=0.60 / qpmin=10 / qpmax=51 / qpstep=4 / cplxblur=20.0 / qblur=0.5 / ip_ratio=1.40 / pb_ratio=1.30 / aq=1:0.70

Audio #1
ID : 2
Format : AC-3
Format/Info : Audio Coding 3
Codec ID : A_AC3
Duration : 1h 52mn
Bit rate mode : Constant
Bit rate : 448 Kbps
Channel(s) : 6 channels
Channel positions : Front: L C R, Surround: L R, LFE
Sampling rate : 48.0 KHz
Video delay : 900ms
Stream size : 360 MiB (5%)
Title : 5.1 @ 448 kbps - Дубльований
Language : Ukrainian

Audio #2
ID : 3
Format :
Format/Info : Digital Theater Systems
Codec ID : A_DTS
Duration : 1h 52mn
Bit rate mode : Constant
Bit rate : 1 510 Kbps
Channel(s) : 6 channels
Channel positions : Front: L C R, Surround: L R, LFE
Sampling rate : 48.0 KHz
Resolution : 24 bits
Stream size : 1.18 GiB (17%)
Title : 5.1 @ 1536 kbps

Audio #3
ID : 4
Format : Vorbis
Format settings, Floor : 1
Codec ID : A_VORBIS
Duration : 1h 52mn
Bit rate mode : Constant
Bit rate : 80.0 Kbps
Channel(s) : 2 channels
Sampling rate : 48.0 KHz
Resolution : 16 bits
Stream size : 64.3 MiB (1%)
Title : Commentary
Writing library : libVorbis 1.1.1/1.1.2 (UTC 2005-03-04)

Text #1
ID : 5
Format : UTF-8
Codec ID : S_TEXT/UTF8
Codec ID/Info : UTF-8 Plain Text
Language : Ukrainian

Text #2
ID : 6
Format : ASS
Codec ID : S_TEXT/ASS
Codec ID/Info : Advanced Sub Station Alpha

Text #3
ID : 7
Format : ASS
Codec ID : S_TEXT/ASS
Codec ID/Info : Advanced Sub Station Alpha
Language : Swedish

Text #4
ID : 8
Format : ASS
Codec ID : S_TEXT/ASS
Codec ID/Info : Advanced Sub Station Alpha
Language : Finnish

Text #5
ID : 9
Format : ASS
Codec ID : S_TEXT/ASS
Codec ID/Info : Advanced Sub Station Alpha
Language : Norwegian

Text #6
ID : 10
Format : ASS
Codec ID : S_TEXT/ASS
Codec ID/Info : Advanced Sub Station Alpha
Language : Danish

Text #7
ID : 11
Format : ASS
Codec ID : S_TEXT/ASS
Codec ID/Info : Advanced Sub Station Alpha
Language : Dutch

Text #8
ID : 12
Format : ASS
Codec ID : S_TEXT/ASS
Codec ID/Info : Advanced Sub Station Alpha
Language : French

Text #9
ID : 13
Format : ASS
Codec ID : S_TEXT/ASS
Codec ID/Info : Advanced Sub Station Alpha
Language : Turkish
Скріншоти:





Подяки
Пану hellforces за українізований постер до Халк (2003)



Джерело: & &

Особиста оцінка: 8 - не другорядний бойовик


Бронзовий реліз (на рейтинг впливає 75% завантаженого)
 Трекер:    Зареєстрований   

Завантажити / скачати фільм українською



відео для новачків



 Зареєстрований:   2012-01-18 18:35
 Розмір:   13.65 GB 
 Оцінка фільму:   9.9/10 (Голосів: 43)
   
robotron005 
Відео Гуртом - фільмокрай
Відео Гуртом - фільмокрай


З нами з: 29.01.09
Востаннє: 11.12.16
Повідомлень: 2989

2012-01-18 18:56  
У першого джерело, неякісний запис з Нового каналу (походження з TNU), у другого Line.

Додано через 2 хвилини 8 секунд:

Фільми не є дилогією, бо другий то є альтернативний рімейк першого.

sania2011 
Поважний учасник


З нами з: 25.02.11
Востаннє: 10.12.16
Повідомлень: 150

2012-01-18 19:05  
Цитата:
robotron005


+1

leroykendall 
Модератор HD


З нами з: 03.01.11
Востаннє: 20.11.16
Повідомлень: 749

2012-01-18 20:54  
robotron005 написано:
У першого джерело, неякісний запис з Нового каналу

Виправив. Підкажіть, будь ласка, чи є більш якісний звук?

robotron005 написано:
(походження з TNU)

Додав у джерело.

robotron005 написано:
у другого Line

Виправив.

Дякую за підказки.

robotron005 написано:
Фільми не є дилогією, бо другий то є альтернативний рімейк першого.

Може бути. Тобто ці два фільми взагалі не варто у один реліз зводити?

robotron005 
Відео Гуртом - фільмокрай
Відео Гуртом - фільмокрай


З нами з: 29.01.09
Востаннє: 11.12.16
Повідомлень: 2989

2012-01-18 20:57  
leroykendall написано:
Може бути. Тобто ці два фільми взагалі не варто у один реліз зводити?


я взагалом не модер, але мабуть достатньо тему назвати як на томуж ХДКлабі.

leroykendall написано:
Підкажіть, будь ласка, чи є більш якісний звук?


неа, немає.

leroykendall 
Модератор HD


З нами з: 03.01.11
Востаннє: 20.11.16
Повідомлень: 749

2012-01-18 21:31  
robotron005 написано:
мабуть достатньо тему назвати як на томуж ХДКлабі

Перейменував тему.
Вибачайте, але назва теки вже залишиться яка є.

robotron005 написано:
неа, немає.

Шкода.

Dark Invader 
Модератор відео


З нами з: 06.01.11
Востаннє: 10.12.16
Повідомлень: 1869

2012-03-09 16:50  
Можна окремо доріжку до першої частини?
leroykendall 
Модератор HD


З нами з: 03.01.11
Востаннє: 20.11.16
Повідомлень: 749

2012-03-11 14:36  
Dark Invader 2
Тільки зараз побачив повідомлення. Але дивлюся ви вже зробили реліз.
Окрема подяка за роботу над українськими сабами до Халка. Згодом може додам до цього релізу.

Dark Invader 
Модератор відео


З нами з: 06.01.11
Востаннє: 10.12.16
Повідомлень: 1869

2012-03-11 16:11  
leroykendall
Я над тими сабами пару годин просидів, поки все нормально відредагував. Але все одно можливі деякі помилки

insatiate 
Новенький


З нами з: 22.07.09
Востаннє: 10.12.16
Повідомлень: 21

2012-03-12 01:27  
станьте хтось пліз на роздачу бо вже не витримую другий день торрент очі мозолить
Rah 
VIP


З нами з: 02.08.09
Востаннє: 30.11.16
Повідомлень: 307

2012-04-17 15:20  
Неймовірний Галк чому ще до сих пір лайн????
leroykendall 
Модератор HD


З нами з: 03.01.11
Востаннє: 20.11.16
Повідомлень: 749

2012-04-18 19:55  
Rah написано:
Неймовірний Галк чому ще до сих пір лайн????

А що хіба український звук був на ДВД чи БД?
Я щось про таке не чув.

ybivatel 
Новенький


З нами з: 06.04.12
Востаннє: 10.12.16
Повідомлень: 13

2012-07-27 20:51  
що з роздачею ??? швидкість гуляє як шльондра
Ваш часовий пояс: GMT + 2 Години

Нова тема   Відповісти