Завантажити та скачати торренти українською


Зразковий дитячо-юнацький хор "Радуниця" - Колядки і щедрівки (2005) [APE] | Folk / Vocal

Нові коментарі

Нова тема   Відповісти
Останній раз роздавалося Солоха17 (2016-12-08)
Автор Повідомлення
ssTAss 
Модератор музики


З нами з: 05.07.08
Востаннє: 08.12.16
Повідомлень: 10948

2012-01-18 15:49  
Зразковий дитячо-юнацький хор "Радуниця" - Колядки і щедрівки (2005) [APE] | Folk / Vocal

Зразковий дитячо-юнацький хор "Радуниця" - Колядки і щедрівки (2005) [APE] | Folk / Vocal


Стиль: Folk
Країна, місто: Україна, Львів
Видавець: Гал Рекордс
Виконавці:
Зразковий дитячо-юнацький хор "Радуниця"


Дитячий хор "Радуниця" був створений в 1996 році. Основна група хору нараховує 35 учасників. Хор працює при установі дитячо-юнацьких та молодіжних клубів Шевченківського району міста Львова. В хорі в основному співають діти, що навчаються у СЗШ №54, та випускники цієї школи.В репертуарі дитячого хору "Радуниця" - духовна музика, українська та світова класика, твори сучасних композиторів та обробки українських народних пісень. Хор плідно працює над популяризацією народної пісні. Хор є учасником та переможцем міських та регіональних конкурсів та фестивалів: "Сурми звитяг", "Камертон", "Велика коляда".

В 2003 році хору "Радуниця" було присвоєно звання "Зразковий художній колектив".

В 2003 та 2005 роках був учасником Міжнародних дитячих фестивалів релігійної пісні м. Ястжемб’є-Здруй (Республіка Польща).

В 2007 році Зразковий хор "Радуниця" був організатором та учасником обласного фестивалю , присвяченого 130-річчю від дня народження М. Леонтовича. Художній керівник хору - Наталія Манько, випускниця Львівської державної консерваторії імені М. Лисенка, педагог-організатор вищої категорії.
Пісні:
    1. На небі зірка
    2. Вістку голосить
    3. Понад Вифлеємом
    4. Ой, підемо, пане-брате
    5. Люляй, люляй, лелія
    6. На різдвяні свята всі ся радуймо
    7. Янголи в небі
    8. Прилетіли ангелята
    9. Христос народився
    10. Спи, Ісусе, спи
    11. Весела на світі нині новина
    12. Пречиста Діва
    13. Стань, Давиде
    14. Бог ся рождає
    15. Чути дзвінок
    16. Господиня рано встає
    17. Господарю, Бог тебе кличе
    18. Через небо доріженька
    19. Ой, на травці, на муравці
    20. Там в садочку черешенька
    21. Ой, там на ставу, на ставочку
    22. Ой, Пречиста Мати пішла щедрувати
    23. Зажурилася крутая гора
    24. Ой, вірле, вірле
    25. Пас Василько стадом коні
    26. Ой, на гороньці дві зозулоньці
    27. Там на річці, на Йордані
    28. Хрестився Христос
    29. Гей, у лузі, крузі
    30. Ой, по Йордані святі ходили
    31. Там за горою плугатарі орють
    32. В Різдвяну ніч
log

Exact Audio Copy V0.99 prebeta 4 from 23. January 2008

Звіт EAC про видобування, котре виконане 29. грудня 2008, 21:31

Зразковий дитячо-юнацький хор "Радуниця" / Колядки і Щедрівки

Дисковод: HL-DT-STCD-RW GCE-8525B Adapter: 1 ID: 1

Режим читання : Точний
Використати точний потік : Так
Вимкнути аудіо кеш : Так
Застосувати мітки C2 : Ні

Корекція зміщення при читанні : 6
Екстрачитання областей Lead-in і Lead-out : Ні
Заповнення пропущених семплів тишею : Так
Видалення блоків з тишею на початку і кінці : Ні
При вирахуванні CRC використовувались нульові семпли : Так
Використаний інтерфейс : Встановлений зовнішній ASPI-інтерфейс

Застосований вихідний формат : Внутрішні WAV-операції
Формат семпла : 44.100 Гц; 16 біт; стерео

TOC видобутого CD

Трек | Старт | Довжина | Початковий сектор | Кінцевий сектор
------------------------------------------------------------------
1 | 0:00.00 | 1:04.00 | 0 | 4799
2 | 1:04.00 | 1:01.55 | 4800 | 9429
3 | 2:05.55 | 1:54.25 | 9430 | 18004
4 | 4:00.05 | 1:54.70 | 18005 | 26624
5 | 5:55.00 | 2:26.15 | 26625 | 37589
6 | 8:21.15 | 2:03.25 | 37590 | 46839
7 | 10:24.40 | 1:48.15 | 46840 | 54954
8 | 12:12.55 | 1:25.35 | 54955 | 61364
9 | 13:38.15 | 1:16.35 | 61365 | 67099
10 | 14:54.50 | 1:59.70 | 67100 | 76094
11 | 16:54.45 | 2:10.70 | 76095 | 85914
12 | 19:05.40 | 2:14.00 | 85915 | 95964
13 | 21:19.40 | 2:23.50 | 95965 | 106739
14 | 23:43.15 | 1:25.40 | 106740 | 113154
15 | 25:08.55 | 1:29.20 | 113155 | 119849
16 | 26:38.00 | 0:39.60 | 119850 | 122834
17 | 27:17.60 | 1:47.30 | 122835 | 130889
18 | 29:05.15 | 1:02.40 | 130890 | 135579
19 | 30:07.55 | 1:17.70 | 135580 | 141424
20 | 31:25.50 | 1:58.00 | 141425 | 150274
21 | 33:23.50 | 2:11.25 | 150275 | 160124
22 | 35:35.00 | 0:44.00 | 160125 | 163424
23 | 36:19.00 | 2:30.50 | 163425 | 174724
24 | 38:49.50 | 2:54.65 | 174725 | 187839
25 | 41:44.40 | 1:36.25 | 187840 | 195064
26 | 43:20.65 | 2:05.35 | 195065 | 204474
27 | 45:26.25 | 2:51.05 | 204475 | 217304
28 | 48:17.30 | 0:51.45 | 217305 | 221174
29 | 49:09.00 | 0:59.60 | 221175 | 225659
30 | 50:08.60 | 2:10.70 | 225660 | 235479
31 | 52:19.55 | 1:55.15 | 235480 | 244119
32 | 54:14.70 | 3:00.27 | 244120 | 257646

Статус діапазону і помилки

Обраний діапазон

Ім'я файлу D:\eMule\Temp\Зразковий дитячо-юнацький хор Радуниця - Колядки і Щедрівки.wav

Піковий рівень 99.8 %
Якість діапазону 100.0 %
CRC копії 7879BD98
Копіювання... OK

Помилки не траплялися

Звіт Точного Видобування

Трек 1 не присутнє в базі даних
Трек 2 не присутнє в базі даних
Трек 3 не присутнє в базі даних
Трек 4 не присутнє в базі даних
Трек 5 не присутнє в базі даних
Трек 6 не присутнє в базі даних
Трек 7 не присутнє в базі даних
Трек 8 не присутнє в базі даних
Трек 9 не присутнє в базі даних
Трек 10 не присутнє в базі даних
Трек 11 не присутнє в базі даних
Трек 12 не присутнє в базі даних
Трек 13 не присутнє в базі даних
Трек 14 не присутнє в базі даних
Трек 15 не присутнє в базі даних
Трек 16 не присутнє в базі даних
Трек 17 не присутнє в базі даних
Трек 18 не присутнє в базі даних
Трек 19 не присутнє в базі даних
Трек 20 не присутнє в базі даних
Трек 21 не присутнє в базі даних
Трек 22 не присутнє в базі даних
Трек 23 не присутнє в базі даних
Трек 24 не присутнє в базі даних
Трек 25 не присутнє в базі даних
Трек 26 не присутнє в базі даних
Трек 27 не присутнє в базі даних
Трек 28 не присутнє в базі даних
Трек 29 не присутнє в базі даних
Трек 30 не присутнє в базі даних
Трек 31 не присутнє в базі даних
Трек 32 не присутнє в базі даних

Жодного трека немає в базі AccurateRip

Кінець звіту
Тривалість: 00:57:15
Мова: українська
Аудіо-кодек: APE
Бітрейт: 699 кб/с
Джерело: інший трекер
Додаткова інформація:
Львівський дитячий хор "Радуниця" живе вже 10 років, і "Колядки і щедрівки" – вже другий альбом колективу. Будемо сподіватись, що за ним будуть і нові – тому що ця платівка хору справляє дуже гарне враження. По-перше, тут зібрано не надто відомі та поширені колядки і щедрівки. За це слід подякувати монахам-студитам, які записали більшість цих пісень у селах Галичини та Волині. По-друге, художній керівник колективу, Наталія Манько, обережно і гарно матеріал обробила. Ну і по-третє – і це, мабуть, таки головне – "Радуниця" дійсно дуже гарно співає. В цьому дитячому співові вже немає жодного натяку на інфантильність, жодної скидки на юний вік. І, в той же час, в ньому ще немає дорослої сили, тиску, бажання. Цей спів м’який і ніжний, але – чистий, дзвінкий. Він не рафінований – і це дуже добре, бо нічого цінного в рафінаді особисто я не бачу. У той же час він – дуже точний, прозорий. Не вихолощений – живий, теплий. Справжній. А здавалося б – ну чого чекати від середньої школи...


Якщо Ви справді бажаєте підтримати українське - після прослуховування, якщо музика вам сподобалась,
придбайте ліцензійний диск.
Підтримаймо вітчизняних виконавців!


Срібний реліз (на рейтинг впливає 50% завантаженого)
 Трекер:    Зареєстрований   

Завантажити / скачати українську музику



відео для новачків



 Зареєстрований:   2012-01-18 15:49
 Розмір:   286 MB 
 Оцінка музики:   8.3/10 (Голосів: 16)
   
Bushido 
VIP


З нами з: 27.12.10
Востаннє: 20.05.16
Повідомлень: 278

2012-01-19 15:03  
Це з моєї школи. Happy Дуже дякую!!! Happy
Olhica 
Новенький


З нами з: 20.12.11
Востаннє: 03.12.16
Повідомлень: 1

2012-10-30 20:29  
це прекрасний спів!
а ще кращим є диск"Качка йде"! Раджу яко музика в дорогу для дівчаток від 2 років!

ssTAss 
Модератор музики


З нами з: 05.07.08
Востаннє: 08.12.16
Повідомлень: 10948

2012-10-30 21:01  
Olhica написано:
а ще кращим є диск"Качка йде"! Раджу яко музика в дорогу для дівчаток від 2 років!

маєте диск? викладайте

plazmatix 
Свій


З нами з: 14.11.09
Востаннє: 30.11.16
Повідомлень: 71

2013-07-10 15:43  
Підкажіть № за каталогом видавця.
ssTAss 
Модератор музики


З нами з: 05.07.08
Востаннє: 08.12.16
Повідомлень: 10948

2013-07-11 23:45  
plazmatix написано:
Підкажіть № за каталогом видавця.

0-192

plazmatix 
Свій


З нами з: 14.11.09
Востаннє: 30.11.16
Повідомлень: 71

2013-07-11 23:49  
о, дуже дякую!
ssTAss 
Модератор музики


З нами з: 05.07.08
Востаннє: 08.12.16
Повідомлень: 10948

2013-10-15 21:22  
Ваш часовий пояс: GMT + 2 Години

Нова тема   Відповісти