Завантажити та скачати торренти українською


Агент Джоні Інгліш: Перезапуск / Johnny English Reborn (2011) 1080p Ukr/Eng | line

Нові коментарі

Нова тема   Відповісти
Останній раз роздавалося Krol (2016-12-07)
Автор Повідомлення
Anonymous 







2012-01-16 16:45  
Агент Джоні Інгліш: Перезапуск / Агент Джоні Інгліш: Перезавантаження / Johnny English Reborn (2011) 1080p Ukr/Eng

Агент Джоні Інгліш: Перезапуск / Johnny English Reborn (2011) 1080p Ukr/Eng | line
Інші постери:
Агент Джоні Інгліш: Перезапуск / Johnny English Reborn (2011) 1080p Ukr/Eng | line
Агент Джоні Інгліш: Перезапуск / Johnny English Reborn (2011) 1080p Ukr/Eng | line
Агент Джоні Інгліш: Перезапуск / Johnny English Reborn (2011) 1080p Ukr/Eng | line
Агент Джоні Інгліш: Перезапуск / Johnny English Reborn (2011) 1080p Ukr/Eng | line

Жанр: пригодницький, комедія, трилер
Країна: США, Франція, Великобританія



Кіностудія / кінокомпанія: Relativity Media, Studio Canal, Universal Pictures
Режисер: Олівер Паркер
Актори: Роуен Аткінсон (Rowan Atkinson), Джилліан Андерсон (Gillian Anderson), Розамунд Пайк (Rosamund Pike), Домінік Уест (Dominic West), Деніел Калуя (Daniel Kaluuya), Ерік Карт (Eric Carte) та інші

Сюжет:
Англійський спецагент – класика жанру, Роуен Аткінсон – класика гумору. Вірний підданий королеві виходить на міжнародний рівень. Англія потребує захисту і без свого героя не обійтись, тож зволікати не можна, Джонні Інгліш налаштований рішуче! Сподіваємось, що він не перечепиться через поріг, коли буде стрімко вилітати з будинку.

Дія фільму розвертається через вісім років після подій попереднього фільму, і з тих пір кар'єра сера Джоні Інгліша йде на спад. Після того, як агент провалив місію в Мозамбік, він живе в печері в горах Тибету, ховаючись від всіх через сором і обвинувачення. Але йому дають ще один шанс. Британська розвідка знов потребує його, і їй треба повернути агента, щоб той зірвав змову групи кіллерів, які планують вбити китайського прем'єр-міністра.


Тривалість: 01:41:21
Якість:
Відео:
кодек:
розмір кадру: 1920x800
бітрейт: 9297 кб/с

Аудіо # 1:
мова: українська |line| від Konfucius
переклад: професійний дубльований
кодек: 2.0
бітрейт: 192 кб/с

Аудіо # 2:
мова: англійська
переклад: оригінал
кодек: 5.1
бітрейт: 1510 кб/с

Агент Джоні Інгліш: Перезапуск / Johnny English Reborn (2011) 720p Ukr/Eng

MediaInfo

Format : Matroska
File size : 7.79 GiB
Duration : 1h 41mn
Overall bit rate : 11.0 Mbps
Movie name : Johnny English Reborn (2011) 1080p Ukr/Eng
Encoded date : UTC 2012-01-16 14:21:50
Writing application : mkvmerge v2.4.2 ('Oh My God') built on Jan 18 2009 17:30:28
Writing library : libebml v0.7.7 + libmatroska v0.8.1
Video #1
ID : 1
Format : AVC
Format/Info : Advanced Video Codec
Format profile : [email protected]
Format settings, CABAC : Yes
Format settings, ReFrames : 5 frames
Muxing mode : Container [email protected]
Codec ID : V_MPEG4/ISO/AVC
Duration : 1h 41mn
Bit rate : 9 079 Kbps
Nominal bit rate : 9 297 Kbps
Width : 1 920 pixels
Height : 800 pixels
Display aspect ratio : 2.40:1
Frame rate : 23.976 fps
Resolution : 24 bits
Colorimetry : 4:2:0
Scan type : Progressive
Bits/(Pixel*Frame) : 0.247
Stream size : 6.42 GiB (82%)
Writing library : core 116 r2074 2641b9e
Encoding settings : cabac=1 / ref=5 / deblock=1:0:0 / analyse=0x3:0x2 / me=umh / subme=7 / psy=1 / psy_rd=1.00:0.00 / mixed_ref=1 / me_range=16 / chroma_me=1 / trellis=1 / 8x8dct=1 / cqm=0 / deadzone=21,11 / fast_pskip=1 / chroma_qp_offset=-2 / threads=12 / sliced_threads=0 / nr=0 / decimate=1 / interlaced=0 / bluray_compat=0 / constrained_intra=0 / bframes=3 / b_pyramid=2 / b_adapt=1 / b_bias=0 / direct=1 / weightb=0 / open_gop=0 / weightp=2 / keyint=250 / keyint_min=23 / scenecut=40 / intra_refresh=0 / rc=2pass / mbtree=0 / bitrate=9297 / ratetol=1.0 / qcomp=0.60 / qpmin=0 / qpmax=51 / qpstep=4 / cplxblur=20.0 / qblur=0.5 / ip_ratio=1.40 / pb_ratio=1.30 / aq=1:1.00
Language : English
Audio #2
ID : 2
Format : AC-3
Format/Info : Audio Coding 3
Codec ID : A_AC3
Duration : 1h 41mn
Bit rate mode : Constant
Bit rate : 192 Kbps
Channel(s) : 2 channels
Channel positions : L R
Sampling rate : 48.0 KHz
Stream size : 139 MiB (2%)
Language : Ukrainian
Audio #3
ID : 3
Format :
Format/Info : Digital Theater Systems
Codec ID : A_DTS
Duration : 1h 41mn
Bit rate mode : Constant
Bit rate : 1 510 Kbps
Channel(s) : 6 channels
Channel positions : Front: L C R, Surround: L R, LFE
Sampling rate : 48.0 KHz
Resolution : 24 bits
Video delay : 11ms
Stream size : 1.07 GiB (14%)
Title : English 1509kbps
Language : English
Скріншоти



Джерело: &
Особиста оцінка: 7/10


 Трекер:    Зареєстрований   

Завантажити / скачати фільм українською



відео для новачків



 Зареєстрований:   2012-01-16 16:45
 Розмір:   7.79 GB 
 Оцінка фільму:   9.5/10 (Голосів: 22)
   
Віктор 
Відео Гуртом - субтитрування
Відео Гуртом - субтитрування


З нами з: 09.01.10
Востаннє: 08.12.16
Повідомлень: 8663

2012-01-16 17:18  
| line допиши в назву так як тут http://toloka.to/t31841 і в реліз 720p http://toloka.to/t31857
Anonymous 







2012-01-16 17:24  
w2958l написано:
| line

це не є обов'язовим

Віктор 
Відео Гуртом - субтитрування
Відео Гуртом - субтитрування


З нами з: 09.01.10
Востаннє: 08.12.16
Повідомлень: 8663

2012-01-16 17:30  
Гість написано:
це не є обов'язовим

І що тепер, кожне питання потрібно прописати в правила щоб було обов'язково? Джерело вказувати і оцінку ставити теж не обов'язково, але ж ти пишеш.

Anonymous 







2012-01-16 17:56  
w2958l написано:
І що тепер, кожне питання потрібно прописати в правила щоб було обов'язково? Джерело вказувати і оцінку ставити теж не обов'язково, але ж ти пишеш.

я просто тобі кажу, що ти встановлюєш свої правила, які нічим не кируються от і все (якщо кожен буде робити все по свому, то що буде. Наприклад мені казали іші модератори що не потрібно писати | ... у назві. То кого слухати - правила які написані).

a014789 
Новенький


З нами з: 21.11.09
Востаннє: 08.07.16
Повідомлень: 20

2012-01-29 19:17  
Класний фільм! Мені навіть більше сподобався, ніж попередня частина.
Roman L 
Новенький


З нами з: 13.06.11
Востаннє: 06.12.16
Повідомлень: 15

2012-06-05 14:28  
станьте хтось на роздачу!!!
Antrakos 
Відео Гуртом - субтитрування
Відео Гуртом - субтитрування


З нами з: 31.01.12
Востаннє: 02.12.16
Повідомлень: 147

2012-06-05 15:04  
Краща комедія від Роуена Аткінсона.
bot 
робот


З нами з: 30.09.07
Востаннє: 26.05.05
Повідомлень: 16031

2012-09-21 14:16  
Тему перенесено з Фільми в HD до форуму Неоформлене відео


urij546724

Ваш часовий пояс: GMT + 2 Години

Нова тема   Відповісти