Завантажити та скачати торренти українською


Пункт призначення 5 3D / Final Destination 5 3D (2011) 1080p Ukr/Eng [Half OverUnder]

Нові коментарі

Нова тема   Відповісти
Останній раз роздавалося -=sHa=- (2015-10-15)
Автор Повідомлення
Бузьок 
програми
програми


З нами з: 18.10.09
Востаннє: 27.11.16
Повідомлень: 1009

2012-01-15 17:05  


Пункт призначення 5 3D / Final Destination 5 3D (2011) 1080p Ukr/Eng [Half OverUnder]

Жанр: жахи, трилер
Країна: США



Кіностудія / кінокомпанія: New Line Cinema
Режисер: Стівен Квейл
Актори: Ніколас Д’Аґосто, Емма Белл, Майлс Фішер, Еллен Ро, Жаклін МакІннес Вуд

Сюжет:
Сюжет обертається навколо головного героя, який передчуває нещасний випадок, завдяки чому його друзі і деякі інші люди рятуються при падінні висячого моста. Проте незабаром виживші розуміють, що немає способів обдурити саму Смерть.


Тривалість: 01:31:48
Якість:
Відео:
кодек:
розмір кадру: 1920x1080
бітрейт: 7114 кб/с

Аудіо # 1:
мова: українська
переклад: професійний дубльований
кодек: 5.1
бітрейт: 640 кб/с

Аудіо # 2:
мова: англійська
переклад: оригінал
кодек: 5.1
бітрейт: 640 кб/с

Джерело озвучення:


Цитата:
Збережено оригінальні чаптери
MediaInfo
General
Unique ID : 177206234737473810311764476757201712411 (0x8550ADEBEED7329D98D5468311C8F51B)
Complete name : D:\Films\Final Destination 5 3D (2011) 1080p [Ukr,Eng].mkv
Format : Matroska
Format version : Version 2
File size : 5.50 GiB
Duration : 1h 31mn
Overall bit rate : 8 578 Kbps
Encoded date : UTC 2012-01-15 14:46:12
Writing application : mkvmerge v5.2.0 ('I can't explain') built on Dec 18 2011 18:12:03
Writing library : libebml v1.2.3 + libmatroska v1.3.0

Video
ID : 1
Format : AVC
Format/Info : Advanced Video Codec
Format profile : [email protected]
Format settings, CABAC : Yes
Format settings, ReFrames : 4 frames
Codec ID : V_MPEG4/ISO/AVC
Duration : 1h 31mn
Bit rate : 7 127 Kbps
Width : 1 920 pixels
Height : 1 080 pixels
Display aspect ratio : 16:9
Frame rate : 23.976 fps
Color space : YUV
Chroma subsampling : 4:2:0
Bit depth : 8 bits
Scan type : Progressive
Bits/(Pixel*Frame) : 0.143
Stream size : 4.57 GiB (83%)
Writing library : core 119 r2106 07efeb4
Encoding settings : cabac=1 / ref=4 / deblock=1:-3:-3 / analyse=0x3:0x113 / me=umh / subme=9 / psy=1 / psy_rd=1.00:0.15 / mixed_ref=1 / me_range=16 / chroma_me=1 / trellis=2 / 8x8dct=1 / cqm=0 / deadzone=21,11 / fast_pskip=1 / chroma_qp_offset=-3 / threads=3 / sliced_threads=0 / nr=0 / decimate=1 / interlaced=0 / bluray_compat=0 / constrained_intra=0 / bframes=6 / b_pyramid=2 / b_adapt=2 / b_bias=0 / direct=3 / weightb=1 / open_gop=0 / weightp=2 / keyint=250 / keyint_min=23 / scenecut=40 / intra_refresh=0 / rc_lookahead=60 / rc=crf / mbtree=1 / crf=18.0 / qcomp=0.70 / qpmin=0 / qpmax=69 / qpstep=4 / ip_ratio=1.40 / aq=1:0.70

Audio #1
ID : 2
Format : AC-3
Format/Info : Audio Coding 3
Mode extension : CM (complete main)
Codec ID : A_AC3
Duration : 1h 31mn
Bit rate mode : Constant
Bit rate : 640 Kbps
Channel(s) : 6 channels
Channel positions : Front: L C R, Side: L R, LFE
Sampling rate : 48.0 KHz
Bit depth : 16 bits
Compression mode : Lossy
Stream size : 420 MiB (7%)
Language : Ukrainian

Audio #2
ID : 3
Format : AC-3
Format/Info : Audio Coding 3
Mode extension : CM (complete main)
Codec ID : A_AC3
Duration : 1h 31mn
Bit rate mode : Constant
Bit rate : 640 Kbps
Channel(s) : 6 channels
Channel positions : Front: L C R, Side: L R, LFE
Sampling rate : 48.0 KHz
Bit depth : 16 bits
Compression mode : Lossy
Stream size : 420 MiB (7%)
Language : English

Menu
00:00:00.000 : :01
00:09:51.341 : :02
00:20:22.763 : :03
00:30:36.543 : :04
00:40:56.996 : :05
00:51:19.076 : :06
01:00:55.777 : :07
01:09:02.847 : :08
01:22:35.576 : :09
01:26:23.303 : :10

Відео виконане в форматі 3D! Для перегляду потрібні спеціальні окуляри та стереоплеєр або телевізор з підтримкою технології 3D!

Усі релізи у форматі 3D
Інструкції щодо перегляду відео у форматі 3D
Скріншоти



Джерело ріпу: 3DRuGroup


 Трекер:    Зареєстрований   

Завантажити / скачати фільм українською



відео для новачків



 Зареєстрований:   2012-01-15 17:05
 Розмір:   5.5 GB 
 Оцінка фільму:   8.1/10 (Голосів: 7)
   
swol 
Частий відвідувач


З нами з: 01.11.09
Востаннє: 07.12.16
Повідомлень: 34

2012-01-15 18:29  
Цитата:
українською має бути "незабаром ті, що вижили розуміють"
kino. 
Модератор відео


З нами з: 27.06.10
Востаннє: 08.12.16
Повідомлень: 2900

2012-01-15 18:35  
Бузьок написано:
розмір кадру: 01:31:48

DiGen 
Модератор HD та координатор Команди HD
Модератор HD та координатор Команди HD


З нами з: 12.11.09
Востаннє: 24.06.13
Повідомлень: 1452

2012-01-16 20:02  
Необхідні виправлення:
1) Додати назву теми і в опис;
2) Оскільки є в МедіаІнфо збережені оригінальні чаптери, то це відзначити в описі;
3) вказати джерело ріпу

igor1403 
Новенький


З нами з: 21.12.10
Востаннє: 01.12.16
Повідомлень: 13

2012-01-28 21:29  
народ дайте роздачу
Bohdan237 
Відео Гуртом - фільмокрай
Відео Гуртом - фільмокрай


З нами з: 12.02.12
Востаннє: 08.12.16
Повідомлень: 383

2012-06-17 23:54  
Можна роздачу відновити?
docman 
Новенький


З нами з: 18.10.10
Востаннє: 29.09.16
Повідомлень: 3

2013-11-27 13:26  
будьте такі ласкаві, дайте швидкості... 40кБ/с... то є не швидкість...
famous37 
Відео Гуртом - фільмокрай
Відео Гуртом - фільмокрай


З нами з: 16.11.08
Востаннє: 08.12.16
Повідомлень: 549

2014-02-05 00:59  
Доволі якісно зроблено
_костя_ 
Новенький


З нами з: 13.12.14
Востаннє: 04.12.16
Повідомлень: 9

2014-12-21 20:02  
станьте хтось на роздачу .
спасибі Wide grin

Ваш часовий пояс: GMT + 2 Години

Нова тема   Відповісти