Завантажити та скачати торренти українською


Древо, Отава, Володар, Дике Поле, Гуртоправці - Зберімося, роде... частина 2 (2005) [FLAC] | Folk

Нові коментарі

Нова тема   Відповісти
Автор Повідомлення
gosha.samovar 
VIP


З нами з: 08.09.10
Востаннє: 05.12.16
Повідомлень: 400

2012-01-14 22:28  
Древо, Отава, Володар, Дике Поле, Гуртоправці - Зберімося, роде... частина 2 (2005) [FLAC] | Folk

Древо, Отава, Володар, Дике Поле, Гуртоправці - Зберімося, роде... частина 2 (2005) [FLAC] | Folk


Стиль: Folk
Країна, місто: Україна, Київ-Кіровоград
Сайти: Офіційний сайт
Видавець: "Оберіг ХХІ"
Виконавці
1. Євген Єфремов
2. Ірина Клименко
3. Ганна Коропниченко
4. Олена Гончаренко
5. Олександр Терещенко
6. Наталя Терещенко
7. Лера Берг
8. Олег Бут
9. Леся Васехо
10. Роман Єненко
11. Настя Іщенко
12. Сусанна Карпенко
13. Ольга Котельникова
14. Катерина Крижанівська
15. Олена Крута
16. Олена Копєйкіна
17. Мар`яна Мархель
18. Сергій Охрімчук
19. Ганна Охрімчук
20. Роман Покотило
21. Ольга Полєха
22. Фросина Проценко
23. Наталя Сербіна
24. Маргарита Скаженик
25. Тетяна Сопілка
26. Олексадра Стражник
27. Валерій Ступницький
28. Костик Товстуха
29. Петро Товстуха
30. Олена Шевчук
Пісні
    01. Ой Свириде-Свиридочку (балада)
    02. Ой з-за гори місяць світить (щедрівка)
    03. Там у світі над землею (колядка)
    04. Ой знаю-знаю (щедрівка)
    05. Ой давно я давно у батька була (балада)
    06. Ой у полі грушка (веснянка)
    07. Ой у полі криниченька (лірична)
    08. Ой Масляна-Масляна (масницька)
    09. Я в неділю народився (масницька)
    10. Ой рябая курка (веснянка)
    11. Ходила Тетяна по ярмарку (жартівлива)
    12. Ой у полі билина стояла (балада)
    13. У місті журина (балада)
    14. Да орав милий йувосені (лірична)
    15. Служила Настя в пана (балада)
    16. Покочу я тарєлочку (веснянка)
    17. Ой сухий дубе (балада)
    18. Що купався Іван (купальска)
    19. Ой на Йвана на Купайлого (купальська)
    20. Косарі косять (приурочена до весни)
    21. Синє йозеро розлєгаєтса (веснянка)
    22. Що я в батька да на йодході (весільна)
    23. Ой паля-паля-палямі (весільна)
    24. Чого, святкове, забавілісь (весільна)
    25. Копав-копав криниченьку (лірична)
    26. Краков'як з приспівками (танець)
    27. Зберімося, роде (родинно-обрядова)
EAC log
Exact Audio Copy V1.0 beta 3 from 29. August 2011

Отчёт EAC об извлечении, выполненном 8. января 2012, 21:32

Древо, Отава, Володар, Дике Поле, Гуртоправці / Зберімося, роде (ч. 2)

Дисковод: PHILIPS SPD2519T Adapter: 2 ID: 0

Режим чтения : Достоверность
Использование точного потока : Да
Отключение кэша аудио : Да
Использование указателей C2 : Нет

Коррекция смещения при чтении : 6
Способность читать области Lead-in и Lead-out : Нет
Заполнение пропущенных сэмплов тишиной : Да
Удаление блоков с тишиной в начале и конце : Нет
При вычислениях CRC использовались нулевые сэмплы : Да
Интерфейс : Встроенный Win32-интерфейс для Win NT/2000

Выходной формат : Пользовательский кодировщик
Выбранный битрейт : 1024 kBit/s
Качество : Высокий
Добавление ID3-тега : Нет
Утилита сжатия : D:\soft_2\EAC\Exact Audio Copy\Flac\flac.exe
Дополнительные параметры : -V -8 -T "Date=%year%" -T "Genre=%genre%" %source%

TOC извлечённого CD

Трек | Старт | Длительность | Начальный сектор | Конечный сектор
---------------------------------------------------------------------
1 | 0:00.00 | 5:03.20 | 0 | 22744
2 | 5:03.20 | 0:56.73 | 22745 | 27017
3 | 6:00.18 | 2:50.40 | 27018 | 39807
4 | 8:50.58 | 1:03.27 | 39808 | 44559
5 | 9:54.10 | 2:35.53 | 44560 | 56237
6 | 12:29.63 | 2:08.36 | 56238 | 65873
7 | 14:38.24 | 3:07.62 | 65874 | 79960
8 | 17:46.11 | 0:40.70 | 79961 | 83030
9 | 18:27.06 | 0:33.20 | 83031 | 85525
10 | 19:00.26 | 1:00.08 | 85526 | 90033
11 | 20:00.34 | 1:53.03 | 90034 | 98511
12 | 21:53.37 | 5:27.59 | 98512 | 123095
13 | 27:21.21 | 3:05.45 | 123096 | 137015
14 | 30:26.66 | 4:42.58 | 137016 | 158223
15 | 35:09.49 | 4:09.05 | 158224 | 176903
16 | 39:18.54 | 1:17.12 | 176904 | 182690
17 | 40:35.66 | 4:13.10 | 182691 | 201675
18 | 44:49.01 | 1:44.01 | 201676 | 209476
19 | 46:33.02 | 1:31.57 | 209477 | 216358
20 | 48:04.59 | 2:32.13 | 216359 | 227771
21 | 50:36.72 | 1:53.04 | 227772 | 236250
22 | 52:30.01 | 2:54.55 | 236251 | 249355
23 | 55:24.56 | 4:23.15 | 249356 | 269095
24 | 59:47.71 | 1:37.30 | 269096 | 276400
25 | 61:25.26 | 3:39.18 | 276401 | 292843
26 | 65:04.44 | 1:37.58 | 292844 | 300176
27 | 66:42.27 | 1:56.00 | 300177 | 308876

Характеристики диапазона извлечения и сообщения об ошибках

Выбранный диапазон

Имя файла E:\Музіка!\from EAC\Древо, Отава, Володар, Дике Поле, Гуртоправці - Зберімося, роде (ч. 2).wav

Пиковый уровень 100.0 %
Скорость извлечения 7.7 X
Качество диапазона 100.0 %
CRC теста B1DD4062
CRC копии B1DD4062
Копирование... OK

Ошибок не произошло

Конец отчёта

==== Контрольная сумма отчёта D8041A910F8C7E3C0FF1F2AC6FC47A11A3C22F7FD10DD97ACD6BA22ABAE25B6C ====
Спектр
Тривалість: 01:08:38
Мова: українська
Аудіо-кодек: FLAC
Бітрейт: 692 кб/с
Джерело: власний ріп власного CD
Додаткова інформація
Цей запис – щось настільки правильне, вірне, чесне, що його ніяк не можна лишити поза увагою. Кажу це як людина, яка, зазвичай, не приділяє етнічній музиці надто багато часу. Але в даному випадку диск містить таку чистоту, яку може відчути і такий, як я, пересічний слухач. Тому рекомендую послухати альбом всім, без винятку. А для більш уважних слухачів скажу, що це продовження проекту, першим виданням котрого став альбом "Володар, відчиняй ворота!". У проекті приймають участь, вочевидь, одні з найкращих гуртів цього напрямку – Древо, Отава, Володар, Дике поле, Гуртоправці. Це видання представляє і специфіку співу п’яти гуртів, і експериментальні міжансамблеві проекти. Якщо ж знати, що тут музикують не просто колеги, а давні друзі й однодумці, стає зрозумілим, що і результат є чимось більшим, ніж просто сума складових. Втім, цього не треба навіть розуміти – тому що можна відчути. Легко. Чисто. Впевнено. Для цього, мені здається, не потрібно навіть бути українцем – достатньо бути просто людиною. Уважною. В цих голосах і мелодіях – справжня магія, у якої немає кордонів ні в часі, ні в просторі.

Антон Йожик Лейба
Якщо Ви справді бажаєте підтримати українське - після прослуховування, якщо музика вам сподобалась, придбайте ліцензійний диск. Підтримаймо вітчизняних виконавців!


Срібний реліз (на рейтинг впливає 50% завантаженого)
 Трекер:    Зареєстрований   

Завантажити / скачати українську музику



відео для новачків



 Зареєстрований:   2012-01-14 22:28
 Розмір:   341 MB 
 Оцінка музики:   10/10 (Голосів: 8)
   
gosha.samovar 
VIP


З нами з: 08.09.10
Востаннє: 05.12.16
Повідомлень: 400

2012-01-14 22:43  
Щойно придбав цю річ, - вирішив поділитись. У кого вже є перша частина, цей реліз - однозначний мастхев, у кого немає і першої частини, - обидва релізи - однозначний мастхев. Wide grin
Ваш часовий пояс: GMT + 2 Години

Нова тема   Відповісти