Завантажити та скачати торренти українською


Пункт призначення 5 / Final Destination 5 (2011) AVC

Нові коментарі

Нова тема   Відповісти
Останній раз роздавалося Ярослав Гладкий (2015-01-04)
Автор Повідомлення
Drool 
VIP


З нами з: 17.04.10
Востаннє: 10.12.16
Повідомлень: 1270

2012-01-14 01:17  
Пункт призначення 5 / Final Destination 5 (2011) AVC

Жанр: трилер, жахи
Країна: США



Кіностудія / кінокомпанія: New Line Cinema
Режисер: Стівен Квейл
Актори: Ніколас Д’Аґосто, Емма Белл, Майлс Фішер, Еллен Ро, Жаклін МакІннес Вуд

Сюжет:
Сюжет обертається навколо головного героя, який передчуває нещасний випадок, завдяки чому його друзі і деякі інші люди рятуються при падінні висячого моста. Проте незабаром ті, що вижили, розуміють - немає способів обдурити саму Смерть.


Тривалість: 01:31:49
Якість: AVC
Відео:
кодек:
розмір кадру: 1056x440
бітрейт: 2296 кб/с

Аудіо:
мова: українська
переклад: професійний дубльований
кодек: 5.1
бітрейт: 448 кб/с

Джерело озвучення:
Звіт MediaInfo
General
Unique ID : 196120478774095922385846959356123791124 (0x938B6E26B095BA29940E14864197BF14)
Complete name : /mnt/disk_d/Video/Films/Final.Destination.5.2011.D.Ukr.AVC.mkv
Format : Matroska
File size : 1.76 GiB
Duration : 1h 31mn
Overall bit rate : 2 746 Kbps
Movie name : Пункт призначення 5 / Final Destination 5 (2011) AVC
Encoded date : UTC 2012-01-13 06:06:36
Writing application : mkvmerge v3.4.0 ('Rapunzel') збірка від May 15 2010 09:38:20
Writing library : libebml v0.8.0 + libmatroska v0.9.0

Video
ID : 1
Format : AVC
Format/Info : Advanced Video Codec
Format profile : [email protected]
Format settings, CABAC : Yes
Format settings, ReFrames : 10 frames
Format settings, GOP : M=9, N=50
Codec ID : V_MPEG4/ISO/AVC
Duration : 1h 31mn
Bit rate : 2 296 Kbps
Width : 1 056 pixels
Height : 440 pixels
Display aspect ratio : 2.40:1
Frame rate : 23.976 fps
Color space : YUV
Chroma subsampling : 4:2:0
Bit depth : 8 bits
Scan type : Progressive
Bits/(Pixel*Frame) : 0.206
Stream size : 1.44 GiB (82%)
Title : Final Destination 5
Writing library : core 116 r2074 2641b9e
Encoding settings : cabac=1 / ref=10 / deblock=1:-2:-1 / analyse=0x3:0x113 / me=umh / subme=9 / psy=1 / psy_rd=1.00:0.00 / mixed_ref=1 / me_range=32 / chroma_me=1 / trellis=2 / 8x8dct=1 / cqm=0 / deadzone=21,11 / fast_pskip=0 / chroma_qp_offset=-2 / threads=6 / sliced_threads=0 / nr=0 / decimate=0 / interlaced=0 / bluray_compat=0 / constrained_intra=0 / bframes=8 / b_pyramid=2 / b_adapt=1 / b_bias=0 / direct=3 / weightb=1 / open_gop=0 / weightp=2 / keyint=250 / keyint_min=23 / scenecut=40 / intra_refresh=0 / rc_lookahead=50 / rc=2pass / mbtree=1 / bitrate=2296 / ratetol=1.0 / qcomp=0.70 / qpmin=10 / qpmax=51 / qpstep=4 / cplxblur=20.0 / qblur=0.5 / ip_ratio=1.40 / aq=2:1.00

Audio
ID : 2
Format : AC-3
Format/Info : Audio Coding 3
Mode extension : CM (complete main)
Codec ID : A_AC3
Duration : 1h 31mn
Bit rate mode : Constant
Bit rate : 448 Kbps
Channel(s) : 6 channels
Channel positions : Front: L C R, Side: L R, LFE
Sampling rate : 48.0 KHz
Bit depth : 16 bits
Compression mode : Lossy
Stream size : 294 MiB (16%)
Title : Ukrainian DUB
Language : Ukrainian
Скріншоти




Джерело:
Особиста оцінка: 6 - третій сорт - не брак


 Трекер:    Зареєстрований   

Завантажити / скачати фільм українською



відео для новачків



 Зареєстрований:   2012-01-14 01:17
 Розмір:   1.76 GB 
 Оцінка фільму:   6.8/10 (Голосів: 12)
   
Myshko3007 
Частий відвідувач


З нами з: 16.01.11
Востаннє: 08.12.16
Повідомлень: 41

2012-01-14 10:49  
Фільм збочений . Вся увага зосереджується на деталізації і "смакуванні" процесу вбивства (загибелі?). Я не додивився до кінця при тому, що заплатив 30грн за квиток. Не раджу нормальним людям.
=Taras= 
Новенький


З нами з: 13.03.11
Востаннє: 03.03.15
Повідомлень: 4

2012-01-14 11:53  
Цілком підтримую попереднє судження! Фільм для психічно нездорових!
sancho2020 
Новенький


З нами з: 02.12.11
Востаннє: 01.04.12
Повідомлень: 6

2012-01-14 12:07  
Фільм так собі (5 з 10).
Сподобалась кінцівка - передісторія до 1шої частини

eXteSy- 
VIP


З нами з: 06.04.09
Востаннє: 11.12.16
Повідомлень: 1458

2012-01-14 12:23  
sancho2020
Навіщо спойлерити? не всі, хто читає коментарі, вже дивились фільм.
Модераторам варто заховати під спойлер.

Drool 
VIP


З нами з: 17.04.10
Востаннє: 10.12.16
Повідомлень: 1270

2012-01-14 18:18  
Фільм виключно для тих, кому сподобались 4 попередні серії.
dryura 
Свій


З нами з: 10.08.09
Востаннє: 10.12.16
Повідомлень: 77

2012-01-14 23:29  
фільм хороший :-)
Sage_te 
Новенький


З нами з: 19.12.11
Востаннє: 23.11.16
Повідомлень: 1

2012-01-15 00:17  
Написано ж - жанр: трилер, жахи. НЕ мелодрама!!!
Ваш часовий пояс: GMT + 2 Години

Нова тема   Відповісти