Завантажити та скачати торренти українською


Пірати карибського моря. Квадрологія / Pirates of the Caribbean: Quadrilogy (2003-2011) Remux Ukr/Eng | Sub Ukr/Eng

Нові коментарі

Нова тема   Відповісти
Сторінка:  1, 2  наступна
Автор Повідомлення
ratbol 
Модератор HD


З нами з: 03.02.09
Востаннє: 09.12.16
Повідомлень: 1088

2012-01-13 21:10  
Пірати карибського моря. Квадрологія / Pirates of the Caribbean: Quadrilogy (2003-2011) Remux Ukr/Eng | Sub Ukr/Eng

Пірати карибського моря. Квадрологія / Pirates of the Caribbean: Quadrilogy (2003-2011) Remux Ukr/Eng | Sub Ukr/Eng


Жанр: пригодницький, екшн, комедія, сімейний, фентезі
Країна: США


Пірати Карибського моря. Прокляття чорної перлини (2003) / Pirates of the Caribbean: The Curse of the Black Pearl (2003) Remux 2хUkr/Eng | Sub Ukr/Eng
Пірати Карибського моря. Прокляття чорної перлини (2003) / Pirates of the Caribbean: The Curse of the Black Pearl (2003) Remux 2хUkr/Eng | Sub Ukr/Eng



Жанр: пригодницький, екшн, комедія, сімейний, фентезі
Країна: США



Кінокомпанія: Walt Disney Pictures, Jerry Bruckheimer Films
Режисер: Ґор Вербінський
Актори: Джонні Депп, Джеффрі Раш, Орландо Блум, Кіра Найтлі, Джек Девенпорт, Джонатан Прайс, Лі Аренберґ та інші
Рейтинг MPAA: (не рекомендовано до перегляду дітям до 13 років)

Сюжет:
Фільм розповідає нам про події в Карибському морі в 17м столітті. Пірат і джентльмен в одній особі, Джек Сперроу разом з дочкою губернатора намагаються зупинити грізний план небезпечних піратів, які намагаються зняти стародавнє прокляття, яка тримає їх між життям і смертю і при світлі місяця їх тіла перетворюються на їх же скелети.


Тривалість: 02:23:15
Якість: Remux
Відео:
кодек:
розмір кадру: 1920 х 1080
бітрейт: ~20 Мб/с

Аудіо #1:
мова: українська
переклад: багатоголосий закадровий | 1+1
кодек: 5.1
бітрейт: 384 кб/с

Аудіо #2:
мова: українська
переклад: багатоголосий закадровий | Новий канал
кодек: 5.1
бітрейт: 384 кб/с

Аудіо #3:
мова: англійська
переклад: оригінал
кодек: -HD 5.1
бітрейт: ~4 Мб/с

Субтитри
мова: українська, англійська
тип: пререндерні
формат: *.pgs

MediaInfo
General
ID : 1 (0x1)
Complete name : \\Mediaserver\e\Укр\Pirates of the Caribbean - Quadrilogy (2003-2011) Remux [Hurtom]\The Curse of.the Black Pearl (2003) Remux [Hurtom].m2ts
Format : BDAV
Format/Info : Blu-ray Video
File size : 27.1 GiB
Duration : 2h 23mn
Overall bit rate mode : Variable
Overall bit rate : 27.1 Mbps
Maximum Overall bit rate : 35.5 Mbps

Video
ID : 4113 (0x1011)
Menu ID : 1 (0x1)
Format : AVC
Format/Info : Advanced Video Codec
Format profile : [email protected]
Format settings, CABAC : Yes
Format settings, ReFrames : 3 frames
Codec ID : 27
Duration : 2h 23mn
Bit rate mode : Variable
Bit rate : 23.0 Mbps
Maximum bit rate : 40.0 Mbps
Width : 1 920 pixels
Height : 1 080 pixels
Display aspect ratio : 16:9
Frame rate : 23.976 fps
Color space : YUV
Chroma subsampling : 4:2:0
Bit depth : 8 bits
Scan type : Progressive
Bits/(Pixel*Frame) : 0.463
Stream size : 23.0 GiB (85%)

Audio #1
ID : 4352 (0x1100)
Menu ID : 1 (0x1)
Format : AC-3
Format/Info : Audio Coding 3
Mode extension : CM (complete main)
Codec ID : 129
Duration : 2h 23mn
Bit rate mode : Constant
Bit rate : 384 Kbps
Channel(s) : 6 channels
Channel positions : Front: L C R, Side: L R, LFE
Sampling rate : 48.0 KHz
Bit depth : 16 bits
Compression mode : Lossy
Stream size : 393 MiB (1%)
Language : Ukrainian

Audio #2
ID : 4353 (0x1101)
Menu ID : 1 (0x1)
Format : AC-3
Format/Info : Audio Coding 3
Mode extension : CM (complete main)
Codec ID : 129
Duration : 2h 23mn
Bit rate mode : Constant
Bit rate : 384 Kbps
Channel(s) : 6 channels
Channel positions : Front: L C R, Side: L R, LFE
Sampling rate : 48.0 KHz
Bit depth : 16 bits
Compression mode : Lossy
Stream size : 393 MiB (1%)
Language : Ukrainian

Audio #3
ID : 4355 (0x1103)
Menu ID : 1 (0x1)
Format :
Format/Info : Digital Theater Systems
Format profile : MA / Core
Muxing mode : Stream extension
Codec ID : 134
Duration : 2h 23mn
Bit rate mode : Variable
Bit rate : 1 561 Kbps / 1 510 Kbps
Channel(s) : 6 channels
Channel positions : Front: L C R, Side: L R, LFE
Sampling rate : 48.0 KHz
Bit depth : 24 bits
Compression mode : Lossless / Lossy
Language : English

Text #1
ID : 4608 (0x1200)
Menu ID : 1 (0x1)
Format : PGS
Codec ID : 144
Delay relative to video : 8s 342ms
Language : Ukrainian

Text #2
ID : 4610 (0x1202)
Menu ID : 1 (0x1)
Format : PGS
Codec ID : 144
Language : English
Скріншоти


Пірати Карибського моря. Скриня мерця (2006) / Pirates of the Caribbean: Dead Man's Chest (2006) Remux Ukr/Eng | Sub Ukr/Eng
Пірати Карибського моря. Скриня мерця (2006) / Pirates of the Caribbean: Dead Man's Chest (2006) Remux Ukr/Eng | Sub Ukr/Eng



Жанр: пригодницький, екшн, комедія, сімейний, фентезі
Країна: США



Кінокомпанія: Walt Disney Pictures, Jerry Bruckheimer Films, Second Mate Productions
Режисер: Ґор Вербінський
Актори: Джонні Депп, Орландо Блум, Кіра Найтлі, Джек Девенпорт, Білл Найі, Джонатан Прайс, Лі Аренберґ та інші
Рейтинг MPAA: (не рекомендовано до перегляду дітям до 13 років)

Сюжет:
Капітан Джек Сперроу опиняється в центрі чергової інтригуючої загадки, пов'язаної з надприродним. Виявляється, що на Сперроу лежить страшне прокляття всіх капітанів легендарного корабля-примари - Летючий Голландець і якщо він не знайде спосіб зняти з себе цю ношу, тоді після життя його чекає вічне рабство, прокляття і муки. Взаємостосунки Сперроу з потойбічним світом вносять серйозні зміни у весільні плани Уїлла Тернера і Елізабет Свонн, яким так само доводиться взяти активну участь в пригодах Джека.


Тривалість: 02:30:39
Якість: Remux
Відео:
кодек:
розмір кадру: 1920 х 1080
бітрейт: ~22 Мб/с

Аудіо #1:
мова: українська
переклад: професійний дубльований | Blu-ray
кодек: 5.1
бітрейт: 640 кб/с

Аудіо #2:
мова: англійська
переклад: оригінал
кодек: -HD 5.1
бітрейт: ~4 Мб/с

Субтитри:
мова: українська, англійська
тип: пререндерні
формат: *.pgs

MediaInfo
General
ID : 1 (0x1)
Complete name : \\Mediaserver\e\Укр\Pirates of the Caribbean - Quadrilogy (2003-2011) Remux [Hurtom]\Dead Man's Chest (2006) Remux [Hurtom].m2ts
Format : BDAV
Format/Info : Blu-ray Video
File size : 27.3 GiB
Duration : 2h 30mn
Overall bit rate mode : Variable
Overall bit rate : 26.0 Mbps
Maximum Overall bit rate : 35.5 Mbps

Video
ID : 4113 (0x1011)
Menu ID : 1 (0x1)
Format : AVC
Format/Info : Advanced Video Codec
Format profile : [email protected]
Format settings, CABAC : Yes
Format settings, ReFrames : 3 frames
Format settings, GOP : M=3, N=24
Codec ID : 27
Duration : 2h 30mn
Bit rate mode : Variable
Bit rate : 22.1 Mbps
Maximum bit rate : 40.0 Mbps
Width : 1 920 pixels
Height : 1 080 pixels
Display aspect ratio : 16:9
Frame rate : 23.976 fps
Color space : YUV
Chroma subsampling : 4:2:0
Bit depth : 8 bits
Scan type : Progressive
Bits/(Pixel*Frame) : 0.444
Stream size : 23.2 GiB (85%)

Audio #1
ID : 4352 (0x1100)
Menu ID : 1 (0x1)
Format : AC-3
Format/Info : Audio Coding 3
Mode extension : CM (complete main)
Codec ID : 129
Duration : 2h 30mn
Bit rate mode : Constant
Bit rate : 640 Kbps
Channel(s) : 6 channels
Channel positions : Front: L C R, Side: L R, LFE
Sampling rate : 48.0 KHz
Bit depth : 16 bits
Compression mode : Lossy
Stream size : 690 MiB (2%)
Language : Ukrainian

Audio #2
ID : 4354 (0x1102)
Menu ID : 1 (0x1)
Format :
Format/Info : Digital Theater Systems
Format profile : MA / Core
Muxing mode : Stream extension
Codec ID : 134
Duration : 2h 30mn
Bit rate mode : Variable
Bit rate : 1 561 Kbps / 1 510 Kbps
Channel(s) : 6 channels
Channel positions : Front: L C R, Side: L R, LFE
Sampling rate : 48.0 KHz
Bit depth : 24 bits
Compression mode : Lossless / Lossy
Language : English
Скріншоти


Пірати Карибського моря. На краю світу (2007) / Pirates of the Caribbean: At World's End (2007) Remux Ukr/Eng | Sub Ukr/Eng
Пірати Карибського моря. На краю світу (2007) / Pirates of the Caribbean: At World's End (2007) Remux Ukr/Eng | Sub Ukr/Eng



Жанр: пригодницький, екшн, комедія, сімейний, фентезі
Країна: США



Кінокомпанія: Walt Disney Pictures, Jerry Bruckheimer Films, Second Mate Productions
Режисер: Ґор Вербінський
Актори: Джонні Депп, Джеффрі Раш, Орландо Блум, Кіра Найтлі, Джек Девенпорт, Білл Найі, Джонатан Прайс та інші
Рейтинг MPAA: (не рекомендовано до перегляду дітям до 13 років)

Сюжет:
Нові пригоди Джека Сперроу і його друзів Уілла Тернера і Елізабет Суонн. Цього разу Уіллу і Елізабет доведеться об'єднатися з самим Капітаном Барбоссою для того, щоб відправитися на край світу і врятувати свого друга — Джека Сперроу. Ситуація ускладнюється тим, що Елізабет викрадають китайські пірати...


Тривалість: 02:48:31
Якість: Remux
Відео:
кодек:
розмір кадру: 1920 х 1080
бітрейт: ~25 Мб/с

Аудіо #1:
мова: українська
переклад: професійний дубльований | Blu-ray
кодек: 5.1
бітрейт: 640 кб/с

Аудіо #2:
мова: англійська
переклад: оригінал
кодек: -HD 5.1
бітрейт: ~4 Мб/с

Субтитри:
мова: українська, англійська
тип: пререндерні
формат: *.pgs

MediaInfo
General
ID : 1 (0x1)
Complete name : \\Mediaserver\e\Укр\Pirates of the Caribbean - Quadrilogy (2003-2011) Remux [Hurtom]\At Worlds End (2007) Remux [Hurtom].m2ts
Format : BDAV
Format/Info : Blu-ray Video
File size : 34.4 GiB
Duration : 2h 48mn
Overall bit rate mode : Variable
Overall bit rate : 29.2 Mbps
Maximum Overall bit rate : 35.5 Mbps

Video
ID : 4113 (0x1011)
Menu ID : 1 (0x1)
Format : AVC
Format/Info : Advanced Video Codec
Format profile : [email protected]
Format settings, CABAC : Yes
Format settings, ReFrames : 3 frames
Format settings, GOP : M=3, N=24
Codec ID : 27
Duration : 2h 48mn
Bit rate mode : Variable
Bit rate : 25.2 Mbps
Maximum bit rate : 40.0 Mbps
Width : 1 920 pixels
Height : 1 080 pixels
Display aspect ratio : 16:9
Frame rate : 23.976 fps
Color space : YUV
Chroma subsampling : 4:2:0
Bit depth : 8 bits
Scan type : Progressive
Bits/(Pixel*Frame) : 0.507
Stream size : 29.7 GiB (86%)

Audio #1
ID : 4352 (0x1100)
Menu ID : 1 (0x1)
Format : AC-3
Format/Info : Audio Coding 3
Mode extension : CM (complete main)
Codec ID : 129
Duration : 2h 48mn
Bit rate mode : Constant
Bit rate : 640 Kbps
Channel(s) : 6 channels
Channel positions : Front: L C R, Side: L R, LFE
Sampling rate : 48.0 KHz
Bit depth : 16 bits
Compression mode : Lossy
Stream size : 771 MiB (2%)
Language : Ukrainian

Audio #2
ID : 4354 (0x1102)
Menu ID : 1 (0x1)
Format :
Format/Info : Digital Theater Systems
Format profile : MA / Core
Muxing mode : Stream extension
Codec ID : 134
Duration : 2h 48mn
Bit rate mode : Variable
Bit rate : 1 561 Kbps / 1 510 Kbps
Channel(s) : 6 channels
Channel positions : Front: L C R, Side: L R, LFE
Sampling rate : 48.0 KHz
Bit depth : 24 bits
Compression mode : Lossless / Lossy
Language : English
Скріншоти


Пірати Карибського моря. На дивних берегах (2011) / Pirates of the Caribbean: On Stranger Tides (2011) Remux Ukr/Eng | Sub Ukr/Eng
Пірати Карибського моря. На дивних берегах (2011) / Pirates of the Caribbean: On Stranger Tides (2011) Remux Ukr/Eng | Sub Ukr/Eng



Жанр: пригодницький, екшн, комедія, сімейний, фентезі
Країна: США



Кінокомпанія: Walt Disney Pictures, Jerry Bruckheimer Films, Moving Picture Company (MPC)
Режисер: Роб Маршалл
Актори: Джонні Депп, Пенелопа Крус, Джеффрі Раш, Іен МакШейн, Кевін МакНеллі, Сем Клафлін, Стівен Ґрем та інші
Рейтинг MPAA: (не рекомендовано до перегляду дітям до 13 років)

Сюжет:
У новій історії про пошуки істини, заради, вічної молодості і смертельної небезпеки капітану Джеку Горобцю належить зіткнутися з жінкою зі свого минулого Анжелікою. До самого кінця не буде зрозуміло, чи пов'язує їх справжня любов, або ж Анжеліка майстерно прикидається, щоб разом з Джеком дістатися до таємничого джерела вічної молодості.
Вона силою примушує капітана Джека Горобця зійти на корабель «Помста Королеви Анни», яким керує підступний лиходій Чорна Борода. Наш герой опиняється в ситуації, коли він не знає, чого йому боятися більше - жахливого лиходія або ж свою давню подругу.


Тривалість: 02:16:23
Якість: Remux
Відео:
кодек:
розмір кадру: 1920 х 1080
бітрейт: ~28 Мб/с

Аудіо #1:
мова: українська
переклад: професійний дубльований | Blu-ray
кодек: 5.1
бітрейт: 640 кб/с

Аудіо #2:
мова: англійська
переклад: оригінал
кодек: -HD 7.1
бітрейт: ~4.5 Мб/с

Субтитри:
мова: українська, анлійська
тип: пререндерні
формат: *.pgs

MediaInfo
General
ID : 1 (0x1)
Complete name : \\Mediaserver\e\Укр\Pirates of the Caribbean - Quadrilogy (2003-2011) Remux [Hurtom]\On Stranger Tides (2011) Remux [Hurtom].m2ts
Format : BDAV
Format/Info : Blu-ray Video
File size : 33.0 GiB
Duration : 2h 16mn
Overall bit rate mode : Variable
Overall bit rate : 34.6 Mbps
Maximum Overall bit rate : 35.5 Mbps

Video
ID : 4113 (0x1011)
Menu ID : 1 (0x1)
Format : AVC
Format/Info : Advanced Video Codec
Format profile : [email protected]
Format settings, CABAC : Yes
Format settings, ReFrames : 4 frames
Codec ID : 27
Duration : 2h 16mn
Bit rate mode : Variable
Bit rate : 28.3 Mbps
Maximum bit rate : 34.0 Mbps
Width : 1 920 pixels
Height : 1 080 pixels
Display aspect ratio : 16:9
Frame rate : 23.976 fps
Color space : YUV
Chroma subsampling : 4:2:0
Bit depth : 8 bits
Scan type : Progressive
Bits/(Pixel*Frame) : 0.570
Stream size : 27.0 GiB (82%)

Audio #1
ID : 4352 (0x1100)
Menu ID : 1 (0x1)
Format : AC-3
Format/Info : Audio Coding 3
Mode extension : CM (complete main)
Codec ID : 129
Duration : 2h 16mn
Bit rate mode : Constant
Bit rate : 640 Kbps
Channel(s) : 6 channels
Channel positions : Front: L C R, Side: L R, LFE
Sampling rate : 48.0 KHz
Bit depth : 16 bits
Compression mode : Lossy
Stream size : 624 MiB (2%)
Language : Ukrainian

Audio #2
ID : 4354 (0x1102)
Menu ID : 1 (0x1)
Format :
Format/Info : Digital Theater Systems
Format profile : MA / Core
Muxing mode : Stream extension
Codec ID : 134
Duration : 2h 16mn
Bit rate mode : Variable
Bit rate : 3 607 Kbps / 1 510 Kbps
Channel(s) : 8 channels / 6 channels
Channel positions : Front: L C R, Side: L R, Back: L R, LFE / Front: L C R, Side: L R, LFE
Sampling rate : 48.0 KHz
Bit depth : 24 bits
Compression mode : Lossless / Lossy
Language : English
Скріншоти




Джерело:  &


Золотий реліз (завантажене не впливає на рейтинг)
 Трекер:    Зареєстрований   

Завантажити / скачати фільм українською



відео для новачків



 Зареєстрований:   2012-01-14 03:36
 Розмір:   118.75 GB 
 Оцінка фільму:   9.9/10 (Голосів: 51)
   
var4un_85 
Новенький


З нами з: 27.05.10
Востаннє: 13.11.16
Повідомлень: 22

2012-01-13 21:38  
Хочу висловити величезну подяку автору за наданий реліз. Так довго чекав на таку якість на рідній українвській мові. ДЯКУЮ !!!
ratbol 
Модератор HD


З нами з: 03.02.09
Востаннє: 09.12.16
Повідомлень: 1088

2012-01-13 21:43  
Будь ласка=)
WolfGhoST 
Частий відвідувач


З нами з: 29.12.11
Востаннє: 17.10.13
Повідомлень: 31

2012-01-13 21:48  
а можна окремо укр доріжку нового каналу. Буду дуже вдячний
ratbol 
Модератор HD


З нами з: 03.02.09
Востаннє: 09.12.16
Повідомлень: 1088

2012-01-13 21:53  
WolfGhoST 
Частий відвідувач


З нами з: 29.12.11
Востаннє: 17.10.13
Повідомлень: 31

2012-01-13 21:55  
ratbol
велике превелике спасибі!

DiGen 
Модератор HD та координатор Команди HD
Модератор HD та координатор Команди HD


З нами з: 12.11.09
Востаннє: 24.06.13
Повідомлень: 1452

2012-01-13 22:20  
Необхідні виправлення:
1) видалити непотріб, залишивши Українську та оригінальну доріжки (при бажанні можете додати коментарі);
2) до першої частини в назві додати 2хУкр;
3) оскільки світлини в мініатюрі, витягнути з-під спойлера.

abodnya 
Відео Гуртом - фільмокрай
Відео Гуртом - фільмокрай


З нами з: 02.11.08
Востаннє: 07.12.16
Повідомлень: 5961

2012-01-13 22:32  
DiGen написано:
1) видалити непотріб, залишивши Українську та оригінальну доріжки (при бажанні можете додати коментарі);

Для кого непотріб, а для кого повнота коллекції.
Це право релізера

DiGen 
Модератор HD та координатор Команди HD
Модератор HD та координатор Команди HD


З нами з: 12.11.09
Востаннє: 24.06.13
Повідомлень: 1452

2012-01-13 22:39  
abodnya, от кому треба, той може з мережі витягти хоч з 20 доріжок іншими мовами
ValTriK 
Поважний учасник


З нами з: 18.12.11
Востаннє: 16.11.16
Повідомлень: 238

2012-01-13 22:46  
Який то треба екран щоби оцінити таку якість?
в мене 46 дюймів і я не бачу різиці між бітрейтом 5мбіт і 10мбіт, а тут аж 20мбіт.

abodnya 
Відео Гуртом - фільмокрай
Відео Гуртом - фільмокрай


З нами з: 02.11.08
Востаннє: 07.12.16
Повідомлень: 5961

2012-01-13 22:49  
DiGen написано:
abodnya, от кому треба, той може з мережі витягти хоч з 20 доріжок іншими мовами

Кожен збирає колекцію для себе. Так само комусь не треба дубляж, а дивиться з сабами тільки. А комусь не потрібен оригінал дтс. А в когось російськомовні родичі і хочеться мати унікальну колекцію в найкращій якості, аби підходила для різних випадків. Не диктуй кому яку збірку робити

ratbol 
Модератор HD


З нами з: 03.02.09
Востаннє: 09.12.16
Повідомлень: 1088

2012-01-13 23:10  
Цитата:
abodnya
Для кого непотріб, а для кого повнота коллекції.
Це право релізера

А в когось російськомовні родичі і хочеться мати унікальну колекцію в найкращій якості, аби підходила для різних випадків. Не диктуй кому яку збірку робити


Дякую, саме тому я залишив російський дубляж, а також тому, що особисто мені він подобається, вдалий підбір голосів!
А якщо річ у обємі, то не думаю, що когось врятує 3гб збереженого місця коли він виділяє більше сотні.

Віктор 
Відео Гуртом - субтитрування
Відео Гуртом - субтитрування


З нами з: 09.01.10
Востаннє: 09.12.16
Повідомлень: 8664

2012-01-13 23:17  
DiGen написано:
1) видалити непотріб, залишивши Українську та оригінальну доріжки (при бажанні можете додати коментарі);


Підписуюсь під кожним словом. Розвелись тут колекціонери. З клабу вантажте колекційні релізи. І там викладайте.

Додано через 3 хвилини 12 секунд:

ratbol написано:
формат: *.pjs

не існує такого формату субтитрів.

abodnya 
Відео Гуртом - фільмокрай
Відео Гуртом - фільмокрай


З нами з: 02.11.08
Востаннє: 07.12.16
Повідомлень: 5961

2012-01-13 23:26  
w2958l написано:
Підписуюсь під кожним словом. Розвелись тут колекціонери. З клабу вантажте колекційні релізи. І там викладайте.

немає нічого поганого в колекційних релізах. Кожен обирає комплектацію на свій смак. Щодо фільмів, то ще поблажливо, а от коли справа доходить до аніме, тоді є ті, хто люблять тільки саби і ті, хто люблять тільки озвучку. А обом одразу догодити майже нереально. Тому колекційні релізи потрібні

ratbol 
Модератор HD


З нами з: 03.02.09
Востаннє: 09.12.16
Повідомлень: 1088

2012-01-13 23:30  
Цитата:
w2958l
Розвелись тут колекціонери


Попрошу без образ

Цитата:
ratbol написано:
формат: *.pjs


Визнаю, я не сильний у форматах субтитрів, а ще я просто переплутав "j" з "g",

Цитата:
не існує такого формату субтитрів.


а чому тоді він існує у списку у меню при виборі формату субтитрів?

Віктор 
Відео Гуртом - субтитрування
Відео Гуртом - субтитрування


З нами з: 09.01.10
Востаннє: 09.12.16
Повідомлень: 8664

2012-01-13 23:33  
abodnya написано:
немає нічого поганого в колекційних релізах.

Для мене колекційний реліз це - укр доріжка оригінальна+ саби + коментарі. І власне сперечатись не збираюсь реліз не отримає жодного металу тому по завершенню фрілічу його ніхто не буде вантажити.
А хто жити не може без російської, чи йому вона потрібна для колекції вдесятеро швидше завантажить цей реліз з клабу.

DiGen 
Модератор HD та координатор Команди HD
Модератор HD та координатор Команди HD


З нами з: 12.11.09
Востаннє: 24.06.13
Повідомлень: 1452

2012-01-13 23:36  
abodnya написано:
Для кого непотріб, а для кого повнота коллекції.

Тоді по логіці треба видалити цей реліз, бо в ньому немає коментарів, а хтось може хоче, щоб вони були.

abodnya 
Відео Гуртом - фільмокрай
Відео Гуртом - фільмокрай


З нами з: 02.11.08
Востаннє: 07.12.16
Повідомлень: 5961

2012-01-13 23:38  
DiGen написано:
Тоді по логіці треба видалити цей реліз, бо в ньому немає коментарів, а хтось може хоче, щоб вони були.

Тоді хай той хтось викладе збірку під себе.
Але тут погоджусь, комментарі варто було б додати

DiGen 
Модератор HD та координатор Команди HD
Модератор HD та координатор Команди HD


З нами з: 12.11.09
Востаннє: 24.06.13
Повідомлень: 1452

2012-01-13 23:40  
Хто викладе, цю логію без непотребу, отримає перевірку, а цей піде в смітник.
І навіщо тоді лишня робота?

Додано через 1 хвилину 20 секунд:

w2958l написано:
не існує такого формату субтитрів.
, дякую, що вказав, бо я не додивився (на той момент їхав додому в маршрутці)
ratbol 
Модератор HD


З нами з: 03.02.09
Востаннє: 09.12.16
Повідомлень: 1088

2012-01-14 00:03  
Цитата:
w2958
А хто жити не може без російської, чи йому вона потрібна для колекції вдесятеро швидше завантажить цей реліз з клабу.


на 50гб більшу розміром

Цитата:
DiGen
І навіщо тоді лишня робота?


Я також не знаю, хто буде це робити

Легше напевно лишити свої принципи

DiGen 
Модератор HD та координатор Команди HD
Модератор HD та координатор Команди HD


З нами з: 12.11.09
Востаннє: 24.06.13
Повідомлень: 1452

2012-01-14 00:19  
ratbol написано:
Я також не знаю, хто буде це робити
, будь-хто, в кого виявиться таке бажання. Навіть цей реліз може стягнути, видалити лишнє, скопіювати оформлення і викласти.
Може і я це зроблю, якщо захочу.

ratbol 
Модератор HD


З нами з: 03.02.09
Востаннє: 09.12.16
Повідомлень: 1088

2012-01-14 00:39  
Цитата:
Хто викладе, цю логію без непотребу, отримає перевірку, а цей піде в смітник.
І навіщо тоді лишня робота?


Якшо чесно, то мені не важко забрати доріжки, але вони мені подобаються і можливо будуть потрібні, бо як писав пан abodnya, в мене є російськомовні родичі. А зайвих 118 гб на таку ж логію без рос доріжок у мене немає

Якщо вважаєте цей реліз безперспективним - видаляйте

Віктор 
Відео Гуртом - субтитрування
Відео Гуртом - субтитрування


З нами з: 09.01.10
Востаннє: 09.12.16
Повідомлень: 8664

2012-01-14 00:48  
ratbol написано:
бо як писав пан abodnya, в мене є російськомовні родичі.

А в кого їх немає? Нехай привчаються до україномовного, я зі своїми "воюю" але поки що безрезультатно.)

Додано через 3 хвилини 29 секунд:

І вже не раз говорилось, російськомовний контент можна завантажити звідки заманеться, а гуртом тим і цінується що тут викладають україномовне.

imonko 
Відео Гуртом - фільмокрай
Відео Гуртом - фільмокрай


З нами з: 20.07.08
Востаннє: 31.10.16
Повідомлень: 7309

2012-01-14 01:09  
шановний w2958l і DiGen, є заперечення - міняйте правила.
частково згідний, але не в такій ультамативній і бидлядцькій манері як ви пропонуєте, вказувати наполегливо можна лише при порушенні правил.
DiGen написано:
Може і я це зроблю, якщо захочу.

да уш.

abodnya 
Відео Гуртом - фільмокрай
Відео Гуртом - фільмокрай


З нами з: 02.11.08
Востаннє: 07.12.16
Повідомлень: 5961

2012-01-14 01:15  
Кожен збирає колекцію для себе. Я собі зібрав 720р з 5.1 ас3 доріжками, де в першій частині є російський дубляж на випадок, якщо буду дивитися з людиною, якій не сподобається закадр.
І "Назад у майбутнє" я собі зібрав укр+рос+англ. варіант.
А Людей Ікс українською всі частини окрім третьої і третя російської, бо укр. немає.
Кожен робить так, як йому зручно. Просто не завжди треба це викладати

Віктор 
Відео Гуртом - субтитрування
Відео Гуртом - субтитрування


З нами з: 09.01.10
Востаннє: 09.12.16
Повідомлень: 8664

2012-01-14 01:19  
imonko написано:
частково згідний, але не в такій ультамативній і бидлядцькій манері як ви пропонуєте, вказувати наполегливо можна лише при порушенні правил.


Якби ми поводились як ти кажеш по-блядцькі, то видали б цей реліз ще годину тому. І що за слова?

imonko написано:
міняйте правила

ти чудово знаєш ситуацію, тому не підливай хоч ти масла у вогонь.

ratbol 
Модератор HD


З нами з: 03.02.09
Востаннє: 09.12.16
Повідомлень: 1088

2012-01-14 01:33  
w2958l

Ви б краще перечитали уважніше, що написав пан imonko

braveboy 
Відео Гуртом - команда HD
Відео Гуртом - команда HD


З нами з: 15.06.10
Востаннє: 29.10.16
Повідомлень: 958

2012-01-14 03:27  
ratbol
в частинах (2006,2007,2011) щось не бачу в MediaInfo інформацію про субтитри
джерело вкажи HDCLUB

ratbol 
Модератор HD


З нами з: 03.02.09
Востаннє: 09.12.16
Повідомлень: 1088

2012-01-14 04:01  
Цитата:
gladunyak
в частинах (2006,2007,2011) щось не бачу в MediaInfo інформацію про субтитри


бачив, сам не знаю чому медіаінфо не бачить субтитри

Додано через 18 хвилин 44 секунди:

"Непотріб" видалено - торент оновлено.
Прошу перевірки.

braveboy 
Відео Гуртом - команда HD
Відео Гуртом - команда HD


З нами з: 15.06.10
Востаннє: 29.10.16
Повідомлень: 958

2012-01-14 05:01  
ratbol написано:
бачив, сам не знаю чому медіаінфо не бачить субтитри

а вони взагалі є ?

ratbol написано:


"Непотріб" видалено - торент оновлено.
Прошу перевірки.

молодець

Ваш часовий пояс: GMT + 2 Години

Нова тема   Відповісти Сторінка:  1, 2  наступна