Завантажити та скачати торренти українською


Агент Джоні Інгліш: Перезапуск / Johnny English Reborn (2011) 720p Ukr/Eng | line

Нові коментарі

Нова тема   Відповісти
Останній раз роздавалося .salo (2016-12-08)
Автор Повідомлення
Anonymous 







2012-01-12 22:48  
Агент Джоні Інгліш: Перезапуск / Агент Джоні Інгліш: Перезавантаження / Johnny English Reborn (2011) 720p Ukr/Eng

Агент Джоні Інгліш: Перезапуск / Johnny English Reborn (2011) 720p Ukr/Eng | line
Інші постери:
Агент Джоні Інгліш: Перезапуск / Johnny English Reborn (2011) 720p Ukr/Eng | line
Агент Джоні Інгліш: Перезапуск / Johnny English Reborn (2011) 720p Ukr/Eng | line
Агент Джоні Інгліш: Перезапуск / Johnny English Reborn (2011) 720p Ukr/Eng | line
Агент Джоні Інгліш: Перезапуск / Johnny English Reborn (2011) 720p Ukr/Eng | line

Жанр: пригодницький, комедія, трилер
Країна: США, Франція, Великобританія



Кіностудія / кінокомпанія: Relativity Media, Studio Canal, Universal Pictures
Режисер: Олівер Паркер
Актори: Роуен Аткінсон (Rowan Atkinson), Джилліан Андерсон (Gillian Anderson), Розамунд Пайк (Rosamund Pike), Домінік Уест (Dominic West), Деніел Калуя (Daniel Kaluuya), Ерік Карт (Eric Carte) та інші

Сюжет:
Англійський спецагент – класика жанру, Роуен Аткінсон – класика гумору. Вірний підданий королеві виходить на міжнародний рівень. Англія потребує захисту і без свого героя не обійтись, тож зволікати не можна, Джонні Інгліш налаштований рішуче! Сподіваємось, що він не перечепиться через поріг, коли буде стрімко вилітати з будинку.

Дія фільму розвертається через вісім років після подій попереднього фільму, і з тих пір кар'єра сера Джоні Інгліша йде на спад. Після того, як агент провалив місію в Мозамбік, він живе в печері в горах Тибету, ховаючись від всіх через сором і обвинувачення. Але йому дають ще один шанс. Британська розвідка знов потребує його, і їй треба повернути агента, щоб той зірвав змову групи кіллерів, які планують вбити китайського прем'єр-міністра.


Тривалість: 01:41:21
Якість:
Відео:
кодек:
розмір кадру: 1280x528
бітрейт: 4662 кб/с

Аудіо # 1:
мова: українська |line| від Konfucius
переклад: професійний дубльований
кодек: 2.0
бітрейт: 192 кб/с

Аудіо # 2:
мова: англійська
переклад: оригінал
кодек: 5.1
бітрейт: 1510 кб/с

Агент Джоні Інгліш: Перезапуск / Johnny English Reborn (2011) 1080p Ukr/Eng

MediaInfo

Format : Matroska
File size : 4.51 GiB
Duration : 1h 41mn
Overall bit rate : 6 366 Kbps
Movie name : Johnny English Reborn (2011) 720p Ukr/Eng
Encoded date : UTC 2012-01-12 20:35:19
Writing application : mkvmerge v2.4.2 ('Oh My God') built on Jan 18 2009 17:30:28
Writing library : libebml v0.7.7 + libmatroska v0.8.1
Video #1
ID : 1
Format : AVC
Format/Info : Advanced Video Codec
Format profile : [email protected]
Format settings, CABAC : Yes
Format settings, ReFrames : 5 frames
Muxing mode : Container [email protected]
Codec ID : V_MPEG4/ISO/AVC
Duration : 1h 41mn
Bit rate : 4 538 Kbps
Nominal bit rate : 4 662 Kbps
Width : 1 280 pixels
Height : 528 pixels
Display aspect ratio : 2.40:1
Frame rate : 23.976 fps
Resolution : 24 bits
Colorimetry : 4:2:0
Scan type : Progressive
Bits/(Pixel*Frame) : 0.280
Stream size : 3.21 GiB (71%)
Title : Johnny English Reborn (2011) 720p Ukr/Eng
Writing library : core 116 r2074 2641b9e
Encoding settings : cabac=1 / ref=5 / deblock=1:0:0 / analyse=0x3:0x2 / me=umh / subme=7 / psy=1 / psy_rd=1.00:0.00 / mixed_ref=1 / me_range=16 / chroma_me=1 / trellis=1 / 8x8dct=1 / cqm=0 / deadzone=21,11 / fast_pskip=1 / chroma_qp_offset=-2 / threads=12 / sliced_threads=0 / nr=0 / decimate=1 / interlaced=0 / bluray_compat=0 / constrained_intra=0 / bframes=3 / b_pyramid=2 / b_adapt=1 / b_bias=0 / direct=1 / weightb=0 / open_gop=0 / weightp=2 / keyint=250 / keyint_min=23 / scenecut=40 / intra_refresh=0 / rc=2pass / mbtree=0 / bitrate=4662 / ratetol=1.0 / qcomp=0.60 / qpmin=0 / qpmax=51 / qpstep=4 / cplxblur=20.0 / qblur=0.5 / ip_ratio=1.40 / pb_ratio=1.30 / aq=1:1.00
Language : English
Audio #2
ID : 2
Format : AC-3
Format/Info : Audio Coding 3
Codec ID : A_AC3
Duration : 1h 41mn
Bit rate mode : Constant
Bit rate : 192 Kbps
Channel(s) : 2 channels
Channel positions : L R
Sampling rate : 48.0 KHz
Stream size : 139 MiB (3%)
Language : Ukrainian
Audio #3
ID : 3
Format :
Format/Info : Digital Theater Systems
Codec ID : A_DTS
Duration : 1h 41mn
Bit rate mode : Constant
Bit rate : 1 510 Kbps
Channel(s) : 6 channels
Channel positions : Front: L C R, Surround: L R, LFE
Sampling rate : 48.0 KHz
Resolution : 24 bits
Video delay : 11ms
Stream size : 1.07 GiB (24%)
Title : English 1509kbps
Language : English
Скріншоти








Джерело: &
Особиста оцінка: 7/10


 Трекер:    Зареєстрований   

Завантажити / скачати фільм українською



відео для новачків



 Зареєстрований:   2012-01-12 22:48
 Розмір:   4.51 GB 
 Оцінка фільму:   8.5/10 (Голосів: 42)
   
Andriy063 
Відео Гуртом - підтримка та поширення
Відео Гуртом - підтримка та поширення


З нами з: 26.09.10
Востаннє: 07.12.16
Повідомлень: 371

2012-01-14 00:31  
Чудове продовження, чудовий фільм, що тут казати: Роуен Аткінсон бог комедійного жанру.
ttamm 
Новенький


З нами з: 05.06.11
Востаннє: 07.12.16
Повідомлень: 6

2012-01-15 11:27  
Дякую за англійську доріжку! Фільм - дуже смішний і якісно зроблений!!
Olkos 
VIP


З нами з: 07.03.09
Востаннє: 08.12.16
Повідомлень: 534

2012-01-21 22:30  
8\10
olegwan 
Свій


З нами з: 19.03.09
Востаннє: 01.12.16
Повідомлень: 71

2012-01-23 16:58  
5/10
Фільм не вразив.
Навіть не знаю до якого жанру його віднести, як трилер - слабенький, як комедія - не вразив, хіба як пародія - та й то слабенька.

bot 
робот


З нами з: 30.09.07
Востаннє: 26.05.05
Повідомлень: 16036

2012-09-21 14:17  
Тему перенесено з Фільми в HD до форуму Неоформлене відео


urij546724

Ваш часовий пояс: GMT + 2 Години

Нова тема   Відповісти