Завантажити та скачати торренти українською


Привіт, Джулі! / Flipped (2010) 720p Ukr/Eng | Sub Ukr/Eng

Нові коментарі

Нова тема   Відповісти
Автор Повідомлення
xfsthe 
Оцифрування книг Гуртом
Оцифрування книг Гуртом


З нами з: 13.02.11
Востаннє: 05.12.16
Повідомлень: 279

2012-01-12 18:13  
Привіт, Джулі! / Flipped (2010) 720p Ukr/Eng | Sub Ukr/Eng

Привіт, Джулі! / Flipped (2010) 720p Ukr/Eng | Sub Ukr/Eng


Жанр: мелодрама, дитячий, романтичний, комедія, сімейний
Країна: США



Кіностудія / кінокомпанія: Castle Rock Entertainment
Режисер: Роб Райнер
Актори: Мадлен Керролл, Каллен МакОліффі, Ребекка Де Морней, Ентоні Едвардс, Джон Махоні, Пенелопа Енн Міллер, , Кевін Вайзман

Сюжет:
Джулі Бейкер, побачивши Брайса Лоскі, відразу ж у нього закохується. А сам Брайс навпаки - відразу ж починає відчувати антипатію до Джулі. Але потім, після восьмого класу Джулі втрачає інтерес до нього, а він - навпаки починає знаходити в Джулі щось цікаве.


Тривалість: 01:29:45
Якість:
Відео:
розмір кадру: 1280 х 720
бітрейт: 6 337 кб/с

Аудіо # 1:
мова: українська
переклад: двоголосий закадровий - richman та halva
кодек: 5.1 - обробив _oles
бітрейт: 384 кб/с

Аудіо # 2:
мова: англійська
переклад: оригінал
кодек: 5.1
бітрейт: 384 кб/с

Субтитри:
мова: українська
тип: програмні (м'які)
формат: *.srt

Субтитри:
мова: англійська
тип: програмні (м'які)
формат: *.srt

Постер: bilenkuyboy

Джерело озвучення: Студія "Три Крапки".
MediaInfo
General
Unique ID : 211873210668613616737286360841248910682 (0x9F654BCC29787D601E0F8861F91D2D5A)
Complete name : /media/media/Привіт, Джулі! (2010) UKR-ENG Sub[ukr,eng] 720p.mkv
Format : Matroska
Format version : Version 2
File size : 4.46 GiB
Duration : 1h 29mn
Overall bit rate : 7 106 Kbps
Movie name : Привіт, Джулі! (2010) 720p
Encoded date : UTC 2012-01-10 20:22:57
Writing application : mkvmerge v5.0.1 ('Es ist Sommer') built on Oct 13 2011 14:41:12
Writing library : libebml v1.2.2 + libmatroska v1.3.0

Video
ID : 1
Format : AVC
Format/Info : Advanced Video Codec
Format profile : [email protected]
Format settings, CABAC : Yes
Format settings, ReFrames : 9 frames
Codec ID : V_MPEG4/ISO/AVC
Duration : 1h 29mn
Bit rate : 6 337 Kbps
Width : 1 280 pixels
Height : 720 pixels
Display aspect ratio : 16:9
Frame rate : 23.976 fps
Color space : YUV
Chroma subsampling : 4:2:0
Bit depth : 8 bits
Scan type : Progressive
Bits/(Pixel*Frame) : 0.287
Stream size : 3.89 GiB (87%)
Title : Привіт, Джулі! (2010) 720p
Writing library : core 110 r1804 e89c4cf
Encoding settings : cabac=1 / ref=9 / deblock=1:-3:-3 / analyse=0x3:0x113 / me=tesa / subme=9 / psy=1 / psy_rd=1.25:0.00 / mixed_ref=1 / me_range=16 / chroma_me=1 / trellis=2 / 8x8dct=1 / cqm=0 / deadzone=21,11 / fast_pskip=0 / chroma_qp_offset=-2 / threads=3 / sliced_threads=0 / nr=0 / decimate=0 / interlaced=0 / constrained_intra=0 / bframes=7 / b_pyramid=2 / b_adapt=2 / b_bias=0 / direct=3 / weightb=1 / open_gop=0 / weightp=2 / keyint=250 / keyint_min=23 / scenecut=40 / intra_refresh=0 / rc=2pass / mbtree=0 / bitrate=6337 / ratetol=1.0 / qcomp=0.60 / qpmin=0 / qpmax=51 / qpstep=4 / cplxblur=20.0 / qblur=0.5 / ip_ratio=1.40 / pb_ratio=1.20 / aq=1:0.85
Language : English

Audio #1
ID : 2
Format : AC-3
Format/Info : Audio Coding 3
Mode extension : CM (complete main)
Codec ID : A_AC3
Duration : 1h 29mn
Bit rate mode : Constant
Bit rate : 384 Kbps
Channel(s) : 6 channels
Channel positions : Front: L C R, Side: L R, LFE
Sampling rate : 48.0 KHz
Bit depth : 16 bits
Compression mode : Lossy
Stream size : 247 MiB (5%)
Title : 5.1 @ 384 кбіт/с - "Три крапки"
Language : Ukrainian

Audio #2
ID : 3
Format : AC-3
Format/Info : Audio Coding 3
Mode extension : CM (complete main)
Codec ID : A_AC3
Duration : 1h 29mn
Bit rate mode : Constant
Bit rate : 384 Kbps
Channel(s) : 6 channels
Channel positions : Front: L C R, Side: L R, LFE
Sampling rate : 48.0 KHz
Bit depth : 16 bits
Compression mode : Lossy
Stream size : 247 MiB (5%)
Title : 5.1 @ 384 кбіт/с
Language : English

Text #1
ID : 4
Format : UTF-8
Codec ID : S_TEXT/UTF8
Codec ID/Info : UTF-8 Plain Text
Language : Ukrainian

Text #2
ID : 5
Format : UTF-8
Codec ID : S_TEXT/UTF8
Codec ID/Info : UTF-8 Plain Text
Language : English
Світлини:


Джерело: &
Особиста оцінка: 10 - без зайвих вагань рекомендую всім!


Золотий реліз (завантажене не впливає на рейтинг)
 Трекер:    Зареєстрований   

Завантажити / скачати фільм українською



відео для новачків



 Зареєстрований:   2012-01-12 18:13
 Розмір:   4.46 GB 
 Оцінка фільму:   9.4/10 (Голосів: 10)
   
Інші релізи
   Привіт, Джулі! / Flipped (2010) Ukr / Eng | sub Ukr richman  10 / 0   1.69 GB   2012-01-10 16:00 
Віктор 
Відео Гуртом - субтитрування
Відео Гуртом - субтитрування


З нами з: 09.01.10
Востаннє: 06.12.16
Повідомлень: 8663

2012-01-12 20:39  
Окрема подяка за укр саб. І прохання на майбутнє, підписуйте файли Привіт, Джулі! (2010) мовою оригіналу, тобто в цьому випадку англійською Flipped (2010)
xfsthe 
Оцифрування книг Гуртом
Оцифрування книг Гуртом


З нами з: 13.02.11
Востаннє: 05.12.16
Повідомлень: 279

2012-01-12 20:44  
w2958l написано:
І прохання на майбутнє, підписуйте файли Привіт, Джулі! (2010) мовою оригіналу, тобто в цьому випадку англійською Flipped (2010)

добре!

Fakerv 
Новенький


З нами з: 09.10.09
Востаннє: 04.12.16
Повідомлень: 4

2015-04-04 14:10  
додайте швидкості, будь ласка
Ваш часовий пояс: GMT + 2 Години

Нова тема   Відповісти