Завантажити та скачати торренти українською


Розплата / Payback (1999) 720p Ukr/Eng | Sub Eng

Нові коментарі

Нова тема   Відповісти
Автор Повідомлення
aalleexx85 
Відео Гуртом - фільмокрай
Відео Гуртом - фільмокрай


З нами з: 27.07.10
Востаннє: 06.12.16
Повідомлень: 1139

2012-01-08 13:20  
Розплата / Payback (1999) 720p Ukr/Eng | Sub Eng

Розплата / Payback (1999) 720p Ukr/Eng | Sub Eng


«Get ready to cheer for the bad guy!»


Жанр: кримінальний, драма, трилер
Країна: USA



Кіностудія / кінокомпанія: Icon Entertainment International
Режисер: Браян Хелгеленд
Актори: Мел Гібсон, Грег Хенрі, Марія Белло, Дебора Кара Ангер, Люсі Ліу, Кріс Крістофферсон

Сюжет:
Група аферистів блискуче провела операцію, після якої один з них, Вел (Хенрі), вирішив забрати долю свого партнера Портера (Гібсон), як і його дружину. Всупереч очікуванням “друга”, смертельно поранений Портер вижив і вирішив помститися...


Тривалість: 01:41:19
Якість:
Відео:
кодек:
розмір кадру: 1280x544
бітрейт: 4030 кб/с

Аудіо # 1:
мова: українська
переклад: багатоголосий закадровий
кодек: 5.1
бітрейт: 448 кб/с

Аудіо # 2:
мова: англійська
переклад: оригінал
кодек: 5.1
бітрейт: 640 кб/с

Джерело озвучення:


український звук від Skiff

Субтитри:
мова: англійська
тип: програмні (м'які)
формат: *.srt
MediaInfo:
General
Unique ID : 239179536012709684551853926683936100366 (0xB3F04D94A11623AABA81268554F9100E)
Complete name : E:\Video\Payback (1999) 720p (ukr,eng).mkv
Format : Matroska
Format version : Version 2
File size : 3.62 GiB
Duration : 1h 41mn
Overall bit rate : 5 119 Kbps
Movie name : Payback (1999) 720p
Encoded date : UTC 2012-01-08 12:30:39
Writing application : mkvmerge v4.9.1 ('Ich will') зібрано Jul 11 2011 23:53:15
Writing library : libebml v1.2.1 + libmatroska v1.1.1

Video
ID : 1
Format : AVC
Format/Info : Advanced Video Codec
Format profile : [email protected]
Format settings, CABAC : Yes
Format settings, ReFrames : 9 frames
Codec ID : V_MPEG4/ISO/AVC
Duration : 1h 41mn
Bit rate : 4 030 Kbps
Width : 1 280 pixels
Height : 544 pixels
Display aspect ratio : 2.35:1
Frame rate : 23.976 fps
Color space : YUV
Chroma subsampling : 4:2:0
Bit depth : 8 bits
Scan type : Progressive
Bits/(Pixel*Frame) : 0.241
Stream size : 2.78 GiB (77%)
Writing library : core 75 r1259M dd026f2
Encoding settings : cabac=1 / ref=9 / deblock=1:-1:-2 / analyse=0x3:0x113 / me=umh / subme=9 / psy=1 / psy_rd=1.0:0.0 / mixed_ref=1 / me_range=32 / chroma_me=1 / trellis=2 / 8x8dct=1 / cqm=0 / deadzone=21,11 / chroma_qp_offset=-2 / threads=12 / nr=0 / decimate=1 / mbaff=0 / bframes=6 / b_pyramid=0 / b_adapt=2 / b_bias=0 / direct=3 / wpredb=1 / keyint=250 / keyint_min=25 / scenecut=40 / rc_lookahead=0 / rc=2pass / mbtree=0 / bitrate=4030 / ratetol=1.0 / qcomp=0.60 / qpmin=10 / qpmax=51 / qpstep=4 / cplxblur=20.0 / qblur=0.5 / vbv_maxrate=50000 / vbv_bufsize=50000 / ip_ratio=1.40 / pb_ratio=1.30 / aq=1:0.80 / pulldown=0 / nal_hrd=0
Language : English
Default : Yes
Forced : No

Audio #1
ID : 2
Format : AC-3
Format/Info : Audio Coding 3
Mode extension : CM (complete main)
Codec ID : A_AC3
Duration : 1h 41mn
Bit rate mode : Constant
Bit rate : 448 Kbps
Channel(s) : 6 channels
Channel positions : Front: L C R, Side: L R, LFE
Sampling rate : 48.0 KHz
Bit depth : 16 bits
Compression mode : Lossy
Stream size : 325 MiB (9%)
Title : ictv
Language : Ukrainian
Default : Yes
Forced : No

Audio #2
ID : 3
Format : AC-3
Format/Info : Audio Coding 3
Mode extension : CM (complete main)
Codec ID : A_AC3
Duration : 1h 41mn
Bit rate mode : Constant
Bit rate : 640 Kbps
Channel(s) : 6 channels
Channel positions : Front: L C R, Side: L R, LFE
Sampling rate : 48.0 KHz
Bit depth : 16 bits
Compression mode : Lossy
Stream size : 464 MiB (13%)
Title : 5.1
Language : English
Default : No
Forced : No

Text
ID : 4
Format : UTF-8
Codec ID : S_TEXT/UTF8
Codec ID/Info : UTF-8 Plain Text
Language : English
Default : No
Forced : No
Скріншоти:



Джерело: &
Особиста оцінка: 10 - без зайвих вагань рекомендую всім!


Срібний реліз (на рейтинг впливає 50% завантаженого)
 Трекер:    Зареєстрований   

Завантажити / скачати фільм українською



відео для новачків



 Зареєстрований:   2012-01-08 14:40
 Розмір:   3.62 GB 
 Оцінка фільму:   8.5/10 (Голосів: 11)
   
Інші релізи
   Розплата / Payback (1999) [MP4, 640x] apvAltisimo  0 / 0   675 MB   2016-02-22 14:30 
   Розплата / Payback (1999) AVC 2xUkr/Eng | sub Eng taraskill1  8 / 0   1.87 GB   2016-02-16 19:11 
   Розплата / Payback (1999) 2xUkr taraskill1  3 / 0   1.46 GB   2016-02-16 19:03 
DiGen 
Модератор HD та координатор Команди HD
Модератор HD та координатор Команди HD


З нами з: 12.11.09
Востаннє: 24.06.13
Повідомлень: 1452

2012-01-08 14:19  
Перезібрати забравши з позначень „реліз для ХДКлабу”
vic88888888 
Свій


З нами з: 11.11.10
Востаннє: 30.11.16
Повідомлень: 66

2012-01-08 18:33  
Нова "Розплата" чиста "спикуляція", а це самий сок "Хеппі Енд". Дякую! В колекцію.
aalleexx85 
Відео Гуртом - фільмокрай
Відео Гуртом - фільмокрай


З нами з: 27.07.10
Востаннє: 06.12.16
Повідомлень: 1139

2012-01-10 17:18  
vic88888888 написано:
Нова "Розплата" чиста "спикуляція", а це самий сок "Хеппі Енд".

мені більше сподобалась режисерська версія (Payback: Straight Up - The Director's Cut, 2006), без хеппі енду, з нормальними кольорами

vic88888888 
Свій


З нами з: 11.11.10
Востаннє: 30.11.16
Повідомлень: 66

2012-01-10 18:32  
aalleexx85, я трішки не те мав на увазі: думаю цією роботою Мел Гібсон міг сміливо підсумувати все досягнуте, а не продовжувати в похилому віці скакати як 20ти річний (маю на увазі останню "розплату"). Даруйте, а що в режисерці інша кінцівка?!
aalleexx85 
Відео Гуртом - фільмокрай
Відео Гуртом - фільмокрай


З нами з: 27.07.10
Востаннє: 06.12.16
Повідомлень: 1139

2012-01-10 19:13  
vic88888888
У 2006 вийшла режис. версія Payback: Straight Up (Video 2006). Там інші початок і фінал, вирізані деякі дійові особи (наприклад персонаж Кріса Крістофферсона), і зовсім інша кольорова палітра фільму.

vic88888888 
Свій


З нами з: 11.11.10
Востаннє: 30.11.16
Повідомлень: 66

2012-01-10 22:26  
Зрозумів, якщо час буде обов"язково гляну, дякую. Та в цілому такий фінал цілком справедливий, інакше заради чого ж людина стільки настраждалась)
Olkos 
VIP


З нами з: 07.03.09
Востаннє: 06.12.16
Повідомлень: 534

2012-04-08 23:14  
сподобався, непоганий фільм
Vert1go 
Частий відвідувач


З нами з: 03.09.13
Востаннє: 05.12.16
Повідомлень: 34

2016-02-19 20:38  
до фільму є декілька запитань, але все одно він крутий.
Ваш часовий пояс: GMT + 2 Години

Нова тема   Відповісти