Завантажити та скачати торренти українською


Особлива думка / Minority Report (2002) 720p Ukr/Eng | Sub Ukr/Eng

Нові коментарі

Нова тема   Відповісти
Автор Повідомлення
Віктор 
Відео Гуртом - субтитрування
Відео Гуртом - субтитрування


З нами з: 09.01.10
Востаннє: 02.12.16
Повідомлень: 8661

2012-01-06 18:40  
Особлива думка / Minority Report (2002) 720p Ukr/Eng | Sub Ukr/Eng


Особлива думка / Minority Report (2002) 720p Ukr/Eng | Sub Ukr/Eng

«What would you do if you were accused of a murder, you had not committed... yet?»


Жанр: бойовик, містика, фантастика
Країна: США



Кіностудія / кінокомпанія: Twentieth Century Fox Film Corporation, DreamWorks SKG, Cruise/Wagner Productions
Режисер: Стівен Спілберґ (Steven Spielberg)
Композитор: Джон Вільямс (John Williams)
Актори: Том Круз (Tom Cruise), Макс фон Cюдов (Max von Sydow), Стів Гарріс (Steve Harris), Ніл МакДона (Neal McDonough), Колін Фаррелл (Colin Farrell), Пітер Стормарі (Peter Stormare) та інші.

Сюжет:
2054. Уже шість років існує особливий відділ. На основі психо-технологій розроблена експериментальна програма, за допомогою якої працівники відділу можуть дізнатися про ще не скоєне вбивство і заарештувати підозрюваного ще до здійснення ним злочину.
Перемоги, номінації, цікаві факти

Оскар, 2003 рік
Номінації (1):
Найкращий монтаж звуку

Премія каналу "MTV", 2003 рік
Номінації (1):
Найкраща екшн-сцена

Британська академія, 2003 рік
Номінації (1):
Найкращі візуальні ефекти

Сезар, 2003 рік
Номінації (1):
Найкращий фільм на іноземною мовою

Сатурн, 2003 рік
Переможець (4):
Найкраща актриса другого плану (Саманта Мортон)
Найкращий режисер (Стівен Спілберґ)
Найкращий сценарій
Найкращий науково-фантастичний фільм

Номінації(7):
Найкращий актор (Том Круз)
Найкращий актор другого плану (Макс фон Cюдов)
Найкращі костюми
Найкращі спецефекти
Найкраща музика
Найкраще спеціальне DVD- видання
Найкращий грим

Європейська кіноакадемія, 2002 рік
Номінації (1):
Приз Screen International Award

Цікаві факти про фільм


• За три роки до початку зйомок Стівен Спілберґ притягнув команду у складі 16 експертів з прогнозування майбутнього, щоб колективно здійснити віртуальну подорож в 2054 рік. До команди увійшли архітектори, медики, священики і винахідники віртуальних технологій.
• З метою побудувати модель автомобілів майбутнього, режисер звернувся в компанію Lexus. Проте, зовнішній вигляд машин був розроблений дизайнером Геральдом Белкером, автором подібних проектів до фільмів "Армаґедон" і "Три Ікси".
• Том Круз приступив до роботи над картиною через пару днів після завершення зйомок "Ванільного неба"(2001).
• На роль Денні Вітвера претендував Мет Деймон, а на роль Іріс Ґайнмен - Меріл Стріп.
• Імена оракулів люб'язно запозичені у найбільших майстрів детективного жанру : Дешіела Гамета, Артура Конан Дойля і Агати Крісті.
• Картина була знята у форматі 2,35:1. Останній раз у такому співвідношенні Спілберґ знімав фільм "Капітан Крюк"(1991).
• Кемерон Діаз зіграла у фільмі епізодичну роль. Вона сидить позаду чоловіка, який уважно роздивляється Андертона, під час сцени в потягу.
• Персонаж Тома Круза по ходу дії картини одягає маску. Раніше маска так чи інакше вдягалась на обличчя Тома Круза в наступних картинах: "Місія нездійсненна"(1996), "Із широко заплющеними очима"(1999), "Місія нездійсненна 2"(2000) і "Ванільне небо"(2001).
• Колін Фарелу знадобилось чимало часу, щоб розібратися в тонкощах придуманої методології обчислення вбивств до його здійснення, активним прибічником якої він і є за сюжетом.
• Стівен Спілберґ зняв три картини поспіль, в яких за сюжетом головний герой вимушений рятуватися втечею. Цей фільм став другим в "трилогії", з'явившись на світ після "Штучного розуму" (2001), але, випередивши вихід картини "Упіймай мене, якщо зможеш"(2002).
• Після викрадення Джоном оракула Агати, персонаж Коліна Фарела ставить питання: "Скільки часу у нас залишилося"? (маючи на увазі час, що залишився, до того, як Джон скоїть вбивство). Йому відповідають: "51 хвилина 28 секунд". Саме стільки часу залишається до закінчення фільму (до моменту, коли з'являються титри).
• На початку цей проект повинен був стати продовженням до картини "Згадати все" (1990). Героя Тома Круза повинен був зіграти Арнольд Шварценеґер, а Оракулами повинні були стати марсіанські мутанти з телепатичними можливостями.
• Під час сцени в якій Андертон затримує дихання, знаходячись у ванні, Спілберґ планував удатися до послуг комп'ютерників, аби показати бульбашку повітря, що з'являється на поверхні води. Проте Том Круз навчився сам "видувати бульбашки", що дозволило трохи заощадити бюджетні кошти.
• У першому варіанті сценарію головного персонажа звали Пол Андерсон. Проте згодом було прийнято рішення перейменувати його в Джона Андертона, тому що Пол Андерсон в Голлівуді вже є. Як нам відомо, саме так звуть режисера "Чужого проти Хижака" (2004) і "Оселя зла" (2002). Крім того, є і Пол Томас Андерсон, режисер фільмів "Ночі в стилі буґі" (1997) і " Магнолія" (1999).
• Вперше у своїй кар'єрі Стівен Спілберґ зняв картину для студії 20th Century Fox. Необхідно, правда, зазначити, що разом з Fox кінофільм фінансувався і студією DreamWorks. В результаті при виході картини в прокат було прийнято наступне рішення: DreamWorks займається дистрибуцією на території Північної Америки (США і Канада), а Fox бере на себе зобов'язання з випуску кінофільму в інших країнах світу.
• На роль Аґати спершу планували запросити Кейт Бланшет або Джину Ельфмен.
• Реліз фільму неодноразово переносився у зв'язку з надзвичайний зайнятістю Спілберґа і Круза в інших проектах (спочатку завадила "Місія нездійсненна-2", потім - "Штучний розум", а потім - "Ванільне небо").
• Роль Денні Вітвера пропонували Хавєру Бардему. Актор відмовився, мотивуючи тим, що йому просто не цікаво бігати за Томом Крузом.
• Бюджет: $102,000,000.
MediaInfo

Код:
General
Unique ID                        : 176129971074149296330422787750878033105 (0x84816606B08DDC56974B760BDF60B4D1)
Complete name                    : D:\HURTOM\Minority Report (2002) [Ukr, Eng] 720p [Hurtom].mkv
Format                           : Matroska
Format version                   : Version 2
File size                        : 10.4 GiB
Duration                         : 2h 25mn
Overall bit rate                 : 10.3 Mbps
Movie name                       : Minority Report (2002) [Ukr, Eng] 720p [Hurtom]
Encoded date                     : UTC 2012-01-06 22:26:11
Writing application              : mkvmerge v5.0.1 ('Es ist Sommer') built on Oct  9 2011 11:55:43
Writing library                  : libebml v1.2.2 + libmatroska v1.3.0
Attachment                       : Yes / Yes / Yes

Video
ID                               : 1
Format                           : AVC
Format/Info                      : Advanced Video Codec
Format profile                   : [email protected]
Format settings, CABAC           : Yes
Format settings, ReFrames        : 7 frames
Codec ID                         : V_MPEG4/ISO/AVC
Duration                         : 2h 25mn
Bit rate                         : 8 115 Kbps
Width                            : 1 280 pixels
Height                           : 536 pixels
Display aspect ratio             : 2.40:1
Frame rate                       : 23.976 fps
Color space                      : YUV
Chroma subsampling               : 4:2:0
Bit depth                        : 8 bits
Scan type                        : Progressive
Bits/(Pixel*Frame)               : 0.493
Stream size                      : 8.23 GiB (79%)
Title                            : Minority Report (2002) [Ukr, Eng] 720p [Hurtom]
Language                         : English
Default                          : Yes
Forced                           : No

Audio #1
ID                               : 2
Format                           : AC-3
Format/Info                      : Audio Coding 3
Mode extension                   : CM (complete main)
Codec ID                         : A_AC3
Duration                         : 2h 25mn
Bit rate mode                    : Constant
Bit rate                         : 448 Kbps
Channel(s)                       : 6 channels
Channel positions                : Front: L C R, Side: L R, LFE
Sampling rate                    : 48.0 KHz
Bit depth                        : 16 bits
Compression mode                 : Lossy
Stream size                      : 465 MiB (4%)
Title                            : 5.1 @ 448 kbps - двоголосий закадровий
Language                         : Ukrainian
Default                          : Yes
Forced                           : No

Audio #2
ID                               : 3
Format                           :
Format/Info                      : Digital Theater Systems
Codec ID                         : A_DTS
Duration                         : 2h 25mn
Bit rate mode                    : Constant
Bit rate                         : 1 510 Kbps
Channel(s)                       : 6 channels
Channel positions                : Front: L C R, Side: L R, LFE
Sampling rate                    : 48.0 KHz
Bit depth                        : 24 bits
Compression mode                 : Lossy
Stream size                      : 1.53 GiB (15%)
Title                            : 5.1 @ 1536 kbps
Language                         : English
Default                          : No
Forced                           : No

Text #1
ID                               : 4
Format                           : UTF-8
Codec ID                         : S_TEXT/UTF8
Codec ID/Info                    : UTF-8 Plain Text
Language                         : Ukrainian
Default                          : No
Forced                           : No

Text #2
ID                               : 5
Format                           : ASS
Codec ID                         : S_TEXT/ASS
Codec ID/Info                    : Advanced Sub Station Alpha
Compression mode                 : Lossless
Language                         : English
Default                          : No
Forced                           : No

Text #3
ID                               : 6
Format                           : UTF-8
Codec ID                         : S_TEXT/UTF8
Codec ID/Info                    : UTF-8 Plain Text
Language                         : English
Default                          : No
Forced                           : No

Menu
00:00:00.000                     : en:1. Red Ball
00:06:47.073                     : en:2. The Arrest of Howard Marks
00:14:49.889                     : en:3. Clarity
00:21:13.021                     : en:4. Pre-Determination
00:24:43.690                     : en:5. Can You See?
00:29:46.034                     : en:6. Ann Lively
00:37:09.518                     : en:7. Case 1109
00:42:42.476                     : en:8. Everybody Runs
00:51:41.973                     : en:9. Auto Assembly Line
00:55:18.606                     : en:10. History of the Pre-Cogs
00:59:57.385                     : en:11. Minority Reports
01:05:10.907                     : en:12. Eyeworks
01:09:41.927                     : en:13. Public Pool
01:17:00.657                     : en:14. The Spyders
01:22:21.561                     : en:15. Agatha is the Key
01:27:57.897                     : en:16. Downloading Agatha
01:35:42.445                     : en:17. Balloon Man
01:39:08.776                     : en:18. Leo Crow
01:49:06.206                     : en:19. An Echo
01:54:02.001                     : en:20. So Much Love in This House
02:01:28.531                     : en:21. All Thumbs
02:06:43.095                     : en:22. A World Without Murder
02:13:11.817                     : en:23. Forgive Me John
02:15:40.632                     : en:24. In Peace (End Credits)
Релізи та інформація про озвучення/дублювання

720p Ukr/Eng | Sub Ukr/Eng (10.43 GB) — двоголосий закадровий запис з ICTV
Ukr/Eng | Sub Eng (2.91 GB) — двоголосий закадровий запис з ICTV

Про озвучення записане ICTV
Ролі озвучили: Євген Пашин і Тетяна Антонова

Про озвучення від Студії «1+1»
Ролі озвучили: Олександр Завальський і Наталя Ярошенко
Тривалість: 02:25:15
Якість: 720p (EbP)
Відео:
кодек:
розмір кадру: 1280x536
бітрейт: 8115 кб/с

Аудіо # 1:
мова: українська
переклад: двоголосий закадровий запис з ICTV
кодек: 5.1
бітрейт: 448 кб/с

Аудіо # 2:
мова: анґлійська
переклад: ориґінал
кодек: 5.1
бітрейт: 1536 кб/с

Субтитри # 1:
мова: українська
тип: програмні (м'які)
формат: *.srt
джерело субтитрів: Blu Ray, обробка: w2958l

Субтитри # 2-3:
мова: англійська
тип: програмні (м'які)
формат: *.ass, srt

Скріншоти :




За синхронізацію доріжки 5.1 подяка Romario_O,
за остаточну синхронізацію доріжки 5.1 під цей ріп подяка Lan-y,
за люб'язно надані сирі укр субтитри подяка Djes-y


Джерело:
Особиста оцінка: 9


Срібний реліз (на рейтинг впливає 50% завантаженого)
 Трекер:    Зареєстрований   

Завантажити / скачати фільм українською



відео для новачків



 Зареєстрований:   2012-01-07 14:10
 Розмір:   10.43 GB 
 Оцінка фільму:   9/10 (Голосів: 25)
   
Інші релізи
   Особлива думка / Minority Report (2002) 3xUkr patriot2305  16 / 0   2.2 GB   2014-09-03 20:46 
   Особлива думка / Minority Report (2002) 2xUkr/Eng | Sub Eng robotron005  1 / 0   2.92 GB   2014-02-15 11:31 
Віктор 
Відео Гуртом - субтитрування
Відео Гуртом - субтитрування


З нами з: 09.01.10
Востаннє: 02.12.16
Повідомлень: 8661

2012-01-06 18:49  
Стосовно ріпу від EbP в нього відсутнє налаштування Encoding settings
m
Video
ID : 1
Format : AVC
Format/Info : Advanced Video Codec
Format profile : [email protected]
Format settings, CABAC : Yes
Format settings, ReFrames : 7 frames
Codec ID : V_MPEG4/ISO/AVC
Duration : 2h 25mn
Bit rate : 8 079 Kbps
Width : 1 280 pixels
Height : 536 pixels
Display aspect ratio : 2.40:1
Frame rate : 23.976 fps
Color space : YUV
Chroma subsampling : 4:2:0
Bit depth : 8 bits
Scan type : Progressive
Bits/(Pixel*Frame) : 0.491
Stream size : 8.20 GiB (66%)
Title : Minority.Report.2002.720p.BluRay.-EbP
Language : English
Default : Yes
Forced : Yes
тому завантажив ріп від ESiR
m
Video
Video
ID : 1
Format : AVC
Format/Info : Advanced Video Codec
Format profile : [email protected]
Format settings, CABAC : Yes
Format settings, ReFrames : 7 frames
Codec ID : V_MPEG4/ISO/AVC
Duration : 2h 25mn
Bit rate : 8 345 Kbps
Width : 1 280 pixels
Height : 534 pixels
Display aspect ratio : 2.40:1
Frame rate : 23.976 fps
Color space : YUV
Chroma subsampling : 4:2:0
Bit depth : 8 bits
Scan type : Progressive
Bits/(Pixel*Frame) : 0.509
Stream size : 8.23 GiB (67%)
Title : Release for HDCLUB by HANSMER
Writing library : core 84 r1400M 20fa784
Encoding settings : cabac=1 / ref=8 / deblock=1:-3:-3 / analyse=0x3:0x133 / me=esa / subme=10 / psy=1 / psy_rd=0.9:0.2 / mixed_ref=1 / me_range=24 / chroma_me=1 / trellis=2 / 8x8dct=1 / cqm=0 / deadzone=21,11 / fast_pskip=1 / chroma_qp_offset=-3 / threads=6 / sliced_threads=0 / nr=0 / decimate=0 / mbaff=0 / constrained_intra=0 / bframes=5 / b_pyramid=1 / b_adapt=2 / b_bias=0 / direct=3 / wpredb=1 / wpredp=2 / keyint=250 / keyint_min=25 / scenecut=40 / intra_refresh=0 / rc=2pass / mbtree=0 / bitrate=8345 / ratetol=1.0 / qcomp=0.60 / qpmin=10 / qpmax=51 / qpstep=4 / cplxblur=20.0 / qblur=0.5 / ip_ratio=1.40 / pb_ratio=1.30 / aq=1:0.80 / pulldown=0 / nal_hrd=0
Language : English
Default : Yes
Forced : No
і порівняв якість, ріп від EbP нічим не гірше, скріншоти порівняння:
http://screenshotcomparison.com/comparison/101344/picture:0

Тому викладаю ріп від EbP. І щодо наявного 720p на трекері - http://toloka.to/t15963 в ньому звук з тб-архіву і присутній ефект піаніно так само як і тут - http://toloka.to/t12974

DiGen 
Модератор HD та координатор Команди HD
Модератор HD та координатор Команди HD


З нами з: 12.11.09
Востаннє: 24.06.13
Повідомлень: 1452

2012-01-07 20:48  
То як я розумію з ХДКлабу відео. Може допишеш в джерелі?
Віктор 
Відео Гуртом - субтитрування
Відео Гуртом - субтитрування


З нами з: 09.01.10
Востаннє: 02.12.16
Повідомлень: 8661

2012-01-07 20:50  
DiGen написано:
То як я розумію з ХДКлабу відео.

Ні, не з клабу. Відео-ріп від EbP

praysu 
Забанено
Забанено


З нами з: 22.05.08
Востаннє: 13.11.13
Повідомлень: 119

2012-01-07 22:14  
Хто дивився фільм як він?
gaidamack 
Свій


З нами з: 19.07.08
Востаннє: 01.12.16
Повідомлень: 107

2014-09-10 11:42  
А чи можна зробити цей реліз гіг на 6-ть меншим, щоб він хоча б на DVD вмістився???
Olkos 
VIP


З нами з: 07.03.09
Востаннє: 02.12.16
Повідомлень: 534

2016-10-15 19:42  
Хороший фільм. Багато екшену та фантастики. Цікаво, що Круз у цьому фільмі виглядає майже як сьогодні, хоча вже 14 років пройшло.
Ваш часовий пояс: GMT + 2 Години

Нова тема   Відповісти