Завантажити та скачати торренти українською


Бумбокс - "Середній вік" (2011) | Rock, Alternative, Hip-Hop

Нові коментарі

Нова тема   Відповісти
Останній раз роздавалося lpershyi (2016-06-27)
Автор Повідомлення
LOLOLO 
Свій


З нами з: 04.03.10
Востаннє: 28.11.16
Повідомлень: 128

2012-01-06 12:08  
Бумбокс - "Середній вік" (2011) | Rock, Alternative, Hip-Hop




Стиль: Alternative, Rock, Hip-Hop
Країна, місто: Україна, Київ
Сайти: Офіційний сайт
Виконавці:
Андрій Хливнюк — вокал, тексти
Андрій Самойло — гітара
Валік Матіюк — DJ
Олександр Люлякін - ударні
Денис Левченко - бас
Треклист

01. Прелюдія - DJ сесія
02. Hip-hop
03. Поліна
04. Стяги на стяги
05. Nevertheless
06. Я твой
07. Крапка
08. Холода.нет
09. Бета-Каротин
10. За буйки
11. Що ти зміг / Солнца нет
12. Квіти в волоссі
13. Немає ТБ
14. Eva
15. Брехня
16. Діагноз
17. Та4то
18. Летний дождь
19. Звезды не ездят в метро
20. Наодинці
21. Почути / Сука-любовь
22. Вахтёрам
23. Звьоздочка
24. Пошла вон
Тривалість: 02:24:48
Якість:
Відео: MPEG2
розмір кадру: 720x576 (16:9)
бітрейт: 9640 кб/с

Аудіо:
мова: українська (2,3,4,7,9,11-13,15,16,20,21,23), російська (6,8,10,11,17,18,19,21,22,24), англійська (5,14)
кодек: , 2.0
бітрейт: 192 кб/с
Технічні деталі

Format : MPEG-PS
File size : 1 024 MiB
Duration : 33mn 44s
Overall bit rate : 4 242 Kbps

Video
ID : 224 (0xE0)
Format : MPEG Video
Format version : Version 2
Format profile : [email protected]
Format settings, BVOP : Yes
Format settings, Matrix : Default
Format settings, GOP : M=3, N=15
Duration : 33mn 44s
Bit rate mode : Variable
Bit rate : 3 966 Kbps
Nominal bit rate : 9 641 Kbps
Width : 720 pixels
Height : 576 pixels
Display aspect ratio : 16:9
Frame rate : 25.000 fps
Standard : PAL
Color space : YUV
Chroma subsampling : 4:2:0
Bit depth : 8 bits
Scan type : Progressive
Scan order : Bottom Field First
Bits/(Pixel*Frame) : 0.383
Stream size : 957 MiB (93%)

Audio
ID : 128 (0x80)
Format : AC-3
Format/Info : Audio Coding 3
Mode extension : CM (complete main)
Duration : 33mn 44s
Bit rate mode : Constant
Bit rate : 192 Kbps
Channel(s) : 2 channels
Channel positions : Front: L R
Sampling rate : 48.0 KHz
Video delay : -1s 72ms
Stream size : 46.3 MiB (5%)

Menu
Скріншоти











Концерт Бумбокс в Києві 9 грудня 2011 року
Реліз від DejaVu Концерт Бумбокс. Презентація нового альбому – "Середній вік" (2011)
Адаптований для відтворення на побутових ДВД-плеєрах

Є меню та розбивка на треки

Джерело:
10 - без зайвих вагань рекомендую всім!


Золотий реліз (завантажене не впливає на рейтинг)
 Трекер:    Зареєстрований   

Завантажити / скачати кліп українською



відео для новачків



 Зареєстрований:   2012-01-06 12:08
 Розмір:   4.29 GB 
 Оцінка кліпу:   10/10 (Голосів: 5)
   
Kitler 
Модератор програмного забезпечення


З нами з: 22.04.11
Востаннє: 04.12.16
Повідомлень: 591

2012-01-06 13:23  
Привіт! Виправляй
LOLOLO написано:
Стиль: Alternative Hip-hop Rock
Постав коми.
LOLOLO написано:
Виконавці: Андрій Хливнюк...
Кожен з нового рядка і допиши, хто що робить (вокал і тп.).
LOLOLO написано:
бітрейт: 25.00fps 9640kbps
Кадрів за секунду необов'язково, а в бітрейті замість kbps напиши кб/с.
LOLOLO написано:
кодек: Dolby 48000Hz 6ch [AC-3]
Напиши просто АС3 і кількість каналів (2.0 чи 5.1).
LOLOLO написано:
бітрейт: 192kbps кб/с
Зітри.
LOLOLO написано:
Джерело:
Лише один раз Гуртом

LOLOLO 
Свій


З нами з: 04.03.10
Востаннє: 28.11.16
Повідомлень: 128

2012-01-06 15:49  
Народ, анфортунателі, буду лише у вівторок. Веселих свят!!
Ваш часовий пояс: GMT + 2 Години

Нова тема   Відповісти