Завантажити та скачати торренти українською


Встигнути до / Due Date (2010) 720p Ukr/Eng | Sub Multi

Нові коментарі

Нова тема   Відповісти
Автор Повідомлення
leroykendall 
Модератор HD


З нами з: 03.01.11
Востаннє: 20.11.16
Повідомлень: 749

2012-01-05 10:35  
Встигнути до / Due Date (2010) 720p Ukr/Eng | Sub Multi

Встигнути до / Due Date (2010) 720p Ukr/Eng | Sub Multi

If there's a hell, I'm already in it.


Жанр: комедія
Країна: США






Кіностудія / кінокомпанія: Warner Bros. Pictures, Legendary Pictures, Green Hat Films; мейджор – Warner Bros
Режисер: Тодд Філліпс (Todd Phillips)
Актори: Роберт Дауні-молодший (Robert Downey Jr.), Зак Ґаліфіанакіс (Zach Galifianakis), Мішель Монаґан (Michelle Monaghan), Джеймі Фокс (Jamie Foxx), Джульєтт Льюіс (Juliette Lewis)

Сюжет:
Дружина керівника великого підприємства з Лос-Анджелеса ось-ось народить їх першу дитину. Але майбутній батько Пітер Хаймен не встигає додому до народження своєї дитини... Єдиний шанс приїхати вчасно - скласти компанію честолюбному зануді акторові Ітану Тремблеєму.

Героя чекає не просто випробування дорогою і часом, але і перевірка на міцність його нервів супутником, який не проти повеселитися і вивести з себе майбутнього батька.


Тривалість: 01:35:15
Якість: 720p (ріп від: HiDt)
Відео:
кодек:
розмір кадру: 1280 x 534
бітрейт: 5921 кб/с

Аудіо # 1:
мова: українська
переклад: професійний дубльований
кодек: 5.1
бітрейт: 448 кб/с

Аудіо # 2:
мова: англійська
переклад: оригінал
кодек: 5.1
бітрейт: 1536 кб/с

Джерело озвучення:


Субтитри:
мова: українська
тип: програмні (м'які)
формат: *.srt

Субтитри:
мова: англійська
тип: програмні (м'які)
формат: *.srt

Субтитри:
мова: болгарська, арабська, китайська, чеська, датська, голандська, фінська, французська, грецька, норвезька, польська, португальська, румунська, іспанська, шведська, турецька, в'єтнамська
тип: програмні (м'які)
формат: *.srt

Збережені оригінальні чаптери як на Blu-ray.


MediaInfo
General
Complete name : Due Date (2010) [Ukr, Eng] 720p [Hurtom, HDCLUB] by leroykendall.mkv
Format : Matroska
File size : 5.24 GiB
Duration : 1h 35mn
Overall bit rate : 7 877 Kbps
Movie name : Due Date (2010) [Ukr, Eng] 720p [Hurtom, HDCLUB] by leroykendall
Encoded date : UTC 2012-01-04 22:21:18
Writing application : mkvmerge v4.9.1 ('Ich will') зібрано Jul 11 2011 23:53:15
Writing library : libebml v1.2.1 + libmatroska v1.1.1

Video
ID : 1
Format : AVC
Format/Info : Advanced Video Codec
Format profile : [email protected]
Format settings, CABAC : Yes
Format settings, ReFrames : 12 frames
Muxing mode : Container [email protected]
Codec ID : V_MPEG4/ISO/AVC
Duration : 1h 35mn
Bit rate : 5 763 Kbps
Nominal bit rate : 5 921 Kbps
Width : 1 280 pixels
Height : 534 pixels
Display aspect ratio : 2.35:1
Frame rate : 23.976 fps
Resolution : 24 bits
Colorimetry : 4:2:0
Scan type : Progressive
Bits/(Pixel*Frame) : 0.352
Stream size : 3.83 GiB (73%)
Title : Due Date (2010) - Release for Hurtom
Writing library : core 114 r1913 5fd3dce
Encoding settings : cabac=1 / ref=12 / deblock=1:-3:-3 / analyse=0x3:0x113 / me=tesa / subme=10 / psy=1 / psy_rd=0.95:0.00 / mixed_ref=1 / me_range=32 / chroma_me=1 / trellis=2 / 8x8dct=1 / cqm=0 / deadzone=21,11 / fast_pskip=0 / chroma_qp_offset=-2 / threads=12 / sliced_threads=0 / nr=0 / decimate=1 / interlaced=0 / constrained_intra=0 / bframes=6 / b_pyramid=2 / b_adapt=2 / b_bias=0 / direct=3 / weightb=1 / open_gop=0 / weightp=2 / keyint=250 / keyint_min=23 / scenecut=40 / intra_refresh=0 / rc=2pass / mbtree=0 / bitrate=5921 / ratetol=1.0 / qcomp=0.60 / qpmin=0 / qpmax=69 / qpstep=4 / cplxblur=20.0 / qblur=0.5 / ip_ratio=1.40 / pb_ratio=1.30 / aq=1:0.80

Audio #1
ID : 2
Format : AC-3
Format/Info : Audio Coding 3
Codec ID : A_AC3
Duration : 1h 35mn
Bit rate mode : Constant
Bit rate : 448 Kbps
Channel(s) : 6 channels
Channel positions : Front: L C R, Surround: L R, LFE
Sampling rate : 48.0 KHz
Stream size : 305 MiB (6%)
Title : Дубляж Blu-ray CEE [ 5.1; 448 кб/с]
Language : Ukrainian

Audio #2
ID : 3
Format :
Format/Info : Digital Theater Systems
Codec ID : A_DTS
Duration : 1h 35mn
Bit rate mode : Constant
Bit rate : 1 510 Kbps
Channel(s) : 6 channels
Channel positions : Front: L C R, Surround: L R, LFE
Sampling rate : 48.0 KHz
Resolution : 16 bits
Stream size : 1.00 GiB (19%)
Title : Blu-ray [ 5.1; 1536 kbps]

Text #1
ID : 4
Format : UTF-8
Codec ID : S_TEXT/UTF8
Codec ID/Info : UTF-8 Plain Text
Title : від karvai0 [Hurtom]
Language : Ukrainian

Text #2
ID : 5
Format : UTF-8
Codec ID : S_TEXT/UTF8
Codec ID/Info : UTF-8 Plain Text

Text #3
ID : 6
Format : UTF-8
Codec ID : S_TEXT/UTF8
Codec ID/Info : UTF-8 Plain Text
Language : Bulgarian

Text #4
ID : 7
Format : UTF-8
Codec ID : S_TEXT/UTF8
Codec ID/Info : UTF-8 Plain Text
Language : Arabic

Text #5
ID : 8
Format : UTF-8
Codec ID : S_TEXT/UTF8
Codec ID/Info : UTF-8 Plain Text
Language : Chinese

Text #6
ID : 9
Format : UTF-8
Codec ID : S_TEXT/UTF8
Codec ID/Info : UTF-8 Plain Text
Language : Czech

Text #7
ID : 10
Format : UTF-8
Codec ID : S_TEXT/UTF8
Codec ID/Info : UTF-8 Plain Text
Language : Danish

Text #8
ID : 11
Format : UTF-8
Codec ID : S_TEXT/UTF8
Codec ID/Info : UTF-8 Plain Text
Language : Dutch

Text #9
ID : 12
Format : UTF-8
Codec ID : S_TEXT/UTF8
Codec ID/Info : UTF-8 Plain Text
Language : Finnish

Text #10
ID : 13
Format : UTF-8
Codec ID : S_TEXT/UTF8
Codec ID/Info : UTF-8 Plain Text
Language : French

Text #11
ID : 14
Format : UTF-8
Codec ID : S_TEXT/UTF8
Codec ID/Info : UTF-8 Plain Text
Language : Greek

Text #12
ID : 15
Format : UTF-8
Codec ID : S_TEXT/UTF8
Codec ID/Info : UTF-8 Plain Text
Language : Norwegian

Text #13
ID : 16
Format : UTF-8
Codec ID : S_TEXT/UTF8
Codec ID/Info : UTF-8 Plain Text
Language : Polish

Text #14
ID : 17
Format : UTF-8
Codec ID : S_TEXT/UTF8
Codec ID/Info : UTF-8 Plain Text
Language : Portuguese

Text #15
ID : 18
Format : UTF-8
Codec ID : S_TEXT/UTF8
Codec ID/Info : UTF-8 Plain Text
Language : Romanian

Text #16
ID : 19
Format : UTF-8
Codec ID : S_TEXT/UTF8
Codec ID/Info : UTF-8 Plain Text
Language : Spanish

Text #17
ID : 20
Format : UTF-8
Codec ID : S_TEXT/UTF8
Codec ID/Info : UTF-8 Plain Text
Language : Swedish

Text #18
ID : 21
Format : UTF-8
Codec ID : S_TEXT/UTF8
Codec ID/Info : UTF-8 Plain Text
Language : Turkish

Text #19
ID : 22
Format : UTF-8
Codec ID : S_TEXT/UTF8
Codec ID/Info : UTF-8 Plain Text
Language : Vietnamese

Menu
00:00:00.000 : :Chapter 01
00:09:58.055 : :Chapter 02
00:18:37.157 : :Chapter 03
00:30:19.943 : :Chapter 04
00:40:59.415 : :Chapter 05
00:50:43.457 : :Chapter 06
00:58:39.807 : :Chapter 07
01:08:47.790 : :Chapter 08
01:18:34.418 : :Chapter 09
01:28:30.555 : :Chapter 10
Скріншоти:







Подяки
Пану karvai0 за українські субтитри (завантажити окремо)



Джерело: &
Особиста оцінка: 7 - доволі якісна комедія


 Трекер:    Зареєстрований   

Завантажити / скачати фільм українською



відео для новачків



 Зареєстрований:   2012-01-05 10:35
 Розмір:   5.24 GB 
 Оцінка фільму:   9/10 (Голосів: 28)
   
Інші релізи
   Встигнути до / Due Date (2010) 1080p Ukr/Eng | Sub Eng/Ukr famous37  2 / 0   8.22 GB   2015-11-30 18:35 
   Встигнути до... / Due Date (2010) Ukr | Sub Ukr/Eng karvai0  8 / 0   1.45 GB   2011-03-08 16:15 
leroykendall 
Модератор HD


З нами з: 03.01.11
Востаннє: 20.11.16
Повідомлень: 749

2012-01-05 10:50  
Цей реліз - замість того що у архіві: http://toloka.to/t21195 за домовленістю з DejaVu. Відмінності: тут кращий ріп, ліцензійний звук Blu-ray CEE, українські саби.
casper101 
Свій


З нами з: 03.12.09
Востаннє: 04.12.16
Повідомлень: 91

2015-10-04 17:43  
супер фільмець!!!!!!!
Ваш часовий пояс: GMT + 2 Години

Нова тема   Відповісти