Завантажити та скачати торренти українською


Древо, Гуртоправці, Володар - Ой, давно-давно... (2003) [FLAC] | Folk

Нові коментарі

Нова тема   Відповісти
Останній раз роздавалося Greifie Lomion (2016-12-07)
Автор Повідомлення
gosha.samovar 
VIP


З нами з: 08.09.10
Востаннє: 06.12.16
Повідомлень: 400

2012-01-04 23:52  
Древо, Гуртоправці, Володар - Ой, давно-давно... (2003) [FLAC] | Folk

Древо, Гуртоправці, Володар - Ой, давно-давно... (2003) [FLAC] | Folk


Стиль: Ethno Folk
Країна, місто: Україна, Київ
Сайти: Офіційний сайт
Видавець: "САМЕ ТАК!"
Виконавці
Євген Єфремов, Петро Товстуха, Роман Єненко, Сергій Охрімчук (скрипка, сопілка, спів), Тетяна Сопілка, Валерій Ступницький, Ірина Клименко, Олег Бут (спів, скрипка, гітара), Олена Гончаренко, Мар`яна Мархель, Сусанна Карпенко, Тарас Компаніченко - реконструкція, Маргарита Скаженик, Олена Копєйкіна, Ольга Полеха, Олександра Стражник
Пісні:
    01. Ой давно-давно (балада)
    02. Даром, дівка, цвіти сієш (романс)
    03. Йшло три бабушки (колядка)
    04. Що на рєчкє да шо на 'Рдані (щедрівка)
    05. Ой за гайом зєльоним (балада)
    06. Прийшли дівочки (колядка)
    07. Ішла вдова долиною (балада)
    08. Про сокола і соколя (дума)
    09. Косив козак сіно (лірична)
    10. Проведу я русалочки (русальна)
    11. Ой ти Галино (купальська)
    12. Ой не того я співаю (приспівки)
    13. Ой па горкє па крутой (солдатська)
    14. Ой пойду я цємненьким лугом (лірична)
    15. Ой ви голуби (псальма)
    16. Ой у полє по роллє (балада)
    17. Житіє моє (псальма)
    18. В полє травка полягла (лірична)
    19. Надворі червоніє (романс)
    20. Баярин кудрявий (весільна)
    21. Дай же Боже (весільні приспівки)
    22. Да ясно-красно (балада)
EAC Log
Exact Audio Copy V1.0 beta 3 from 29. August 2011

Отчёт EAC об извлечении, выполненном 4. января 2012, 23:09

Древо, Гуртоправці, Володар / Ой, давно-давно

Дисковод: PHILIPS SPD2519T Adapter: 2 ID: 0

Режим чтения : Достоверность
Использование точного потока : Да
Отключение кэша аудио : Да
Использование указателей C2 : Нет

Коррекция смещения при чтении : 6
Способность читать области Lead-in и Lead-out : Нет
Заполнение пропущенных сэмплов тишиной : Да
Удаление блоков с тишиной в начале и конце : Нет
При вычислениях CRC использовались нулевые сэмплы : Да
Интерфейс : Встроенный Win32-интерфейс для Win NT/2000

Выходной формат : Пользовательский кодировщик
Выбранный битрейт : 1024 kBit/s
Качество : Высокий
Добавление ID3-тега : Нет
Утилита сжатия : D:\soft_2\EAC\Exact Audio Copy\Flac\flac.exe
Дополнительные параметры : -V -8 -T "Date=%year%" -T "Genre=%genre%" %source%

TOC извлечённого CD

Трек | Старт | Длительность | Начальный сектор | Конечный сектор
---------------------------------------------------------------------
1 | 0:00.00 | 3:57.07 | 0 | 17781
2 | 3:57.07 | 5:14.35 | 17782 | 41366
3 | 9:11.42 | 1:57.46 | 41367 | 50187
4 | 11:09.13 | 1:19.22 | 50188 | 56134
5 | 12:28.35 | 3:13.45 | 56135 | 70654
6 | 15:42.05 | 2:29.37 | 70655 | 81866
7 | 18:11.42 | 5:22.48 | 81867 | 106064
8 | 23:34.15 | 9:05.28 | 106065 | 146967
9 | 32:39.43 | 2:39.24 | 146968 | 158916
10 | 35:18.67 | 1:17.40 | 158917 | 164731
11 | 36:36.32 | 0:44.04 | 164732 | 168035
12 | 37:20.36 | 5:07.60 | 168036 | 191120
13 | 42:28.21 | 2:35.73 | 191121 | 202818
14 | 45:04.19 | 2:57.67 | 202819 | 216160
15 | 48:02.11 | 2:28.38 | 216161 | 227298
16 | 50:30.49 | 3:11.73 | 227299 | 241696
17 | 53:42.47 | 3:20.49 | 241697 | 256745
18 | 57:03.21 | 4:33.10 | 256746 | 277230
19 | 61:36.31 | 2:45.17 | 277231 | 289622
20 | 64:21.48 | 1:34.07 | 289623 | 296679
21 | 65:55.55 | 1:43.34 | 296680 | 304438
22 | 67:39.14 | 5:33.02 | 304439 | 329415

Характеристики диапазона извлечения и сообщения об ошибках

Выбранный диапазон

Имя файла E:\Музіка!\from EAC\Древо, Гуртоправці, Володар - Ой, давно-давно.wav

Пиковый уровень 100.0 %
Скорость извлечения 8.4 X
Качество диапазона 100.0 %
CRC теста AE90CE3F
CRC копии AE90CE3F
Копирование... OK

Ошибок не произошло

Конец отчёта

==== Контрольная сумма отчёта 4D11F0A1037C55AE1199C1EDDAA8D0327A08C2F20930BFE4B605A2D30EE34110 ====
Спектр
Тривалість: 01:12:27
Мова: українська
Аудіо-кодек: FLAC
Бітрейт: 721 кб/с
Джерело: власний ріп власного CD
Додаткова інформація
UMKA.COM.UA :

Перша реакція була – "Ого!" Думки навіть не намагалися щось сказати – притихли на деякий час, слухають разом зі мною. Нехай мовчать, нехай спостерігають, як серце набухає, наче брунька, як кров пускає в себе землю й небо, як душа колоссям золотим потягнеться услід за вітром. А вітер той – пісні, такі земні, такі чудесні. Прості такі, живі – й такі багаті. Вони займаються, немов просмолене багаття – ти не помітив навіть, як почав палати й сам у цім вогні. Бо він не зовні, він зсередини росте і піднімає пам’ять вікову, таку глибоку, що ти слів не знаєш, щоб сказати. Тому співаєш і мовчиш, співаєш мовчки і мовчанням заповнюєш співочій простір – і простір цей вібрує, тремтить, очищує коріння від наносного, від неправди. Не знаю, що і як вам ще сказати. Слухайте.

Антон Йожик Лейба
Якщо Ви справді бажаєте підтримати українське - після прослуховування, якщо музика вам сподобалась, придбайте ліцензійний диск. Підтримаймо вітчизняних виконавців!


Срібний реліз (на рейтинг впливає 50% завантаженого)
 Трекер:    Зареєстрований   

Завантажити / скачати українську музику



відео для новачків



 Зареєстрований:   2012-01-04 23:52
 Розмір:   379 MB 
 Оцінка музики:   10/10 (Голосів: 7)
   
Ваш часовий пояс: GMT + 2 Години

Нова тема   Відповісти