Завантажити та скачати торренти українською


Скільки у тебе? / What's Your Number? (2011) 720p Ukr/Eng | Sub Eng

Нові коментарі

Нова тема   Відповісти
Автор Повідомлення
Anonymous 







2012-01-03 20:24  
Скільки у тебе? / What's Your Number? (2011) 720p Ukr/Eng | Sub Eng




Скільки у тебе? / What's Your Number? (2011) 720p Ukr/Eng | Sub Eng
«У Еллі було двадцять...»


Інший постер
Жанр: комедія, романтичний
Країна: США







Кіностудія / кінокомпанія: Contrafilm, Modern Videofilm Inc., New Regency Pictures, Regency Enterprises
Режисер: Марк Майлод
Актори: Анна Феріс, Кріс Еванс, Ері Грейнор, Блайт Даннер, Ед Беглі мл, Олівер Джексон-Коен, Хезер Бернс, Еліза Куп, Кейт Сімсес, Тіка Самптер



Сюжет:
Еллі Дарлінг вирушає на пошуки кращого колишнього бойфренда в своєму житті, і ця подорож представляється їй абсолютно необхідною, після того, як вона прочитала в журналі статтю, застережливу про те, що люди, в яких у житті було більше 20 романів, упустили шанс знайти свою справжню любов. Еллі — справжня сучасна героїня. Вона розумна, приваблива, дотепна і романтична — дівчина, яка намагається зрозуміти, хто вона насправді і з ким їй слід зв'язати своє життя. Хоча до пошуку колишнього кращого кавалера її підстебнула стаття в журналі, це означає щось важливіше: у Еллі настав в житті такий момент, коли вона виявилася без чоловіка, без роботи, і її життя зовсім не таке, про яке вона мріяла. Вона виявилася на роздоріжжі, і це змушує її задуматися про те, що за останнє десятиліття вона могла пропустити щось, або когось, дуже значимого в своєму житті.




Тривалість: 01:46:14
Якість:
Відео:
кодек:
розмір кадру: 1280х688
бітрейт: 8534 кб/с

Аудіо 1:
мова: українська
переклад: професійний дубльований
кодек: 5.1
бітрейт: 384 кб/с

Аудіо 2:
мова: англійська
переклад: оригінал
кодек: 5.1
бітрейт: 1510 кб/с

Джерело озвучення:


Субтитри:
мова: англійська
тип: програмні (м'які)
формат: *.srt



Скільки у тебе? / What's Your Number? (2011) 1.37 Gb
MediaInfo

Format : Matroska
File size : 7.73 GiB
Duration : 1h 46mn
Overall bit rate : 10.4 Mbps
Movie name : What's Your Number?..720p
Encoded date : UTC 2012-01-03 18:09:31
Writing application : mkvmerge v2.4.2 ('Oh My God') built on Jan 18 2009 17:30:28
Writing library : libebml v0.7.7 + libmatroska v0.8.1
Video #1
ID : 1
Format : AVC
Format/Info : Advanced Video Codec
Format profile : [email protected]
Format settings, CABAC : Yes
Format settings, ReFrames : 8 frames
Muxing mode : Container [email protected]
Codec ID : V_MPEG4/ISO/AVC
Duration : 1h 46mn
Bit rate : 8 319 Kbps
Nominal bit rate : 8 534 Kbps
Width : 1 280 pixels
Height : 688 pixels
Display aspect ratio : 1.860
Frame rate : 23.976 fps
Resolution : 24 bits
Colorimetry : 4:2:0
Scan type : Progressive
Bits/(Pixel*Frame) : 0.394
Stream size : 6.17 GiB (80%)
Title : What's Your Number..720p
Writing library : core 119 r2106 07efeb4
Encoding settings : cabac=1 / ref=8 / deblock=1:-3:-3 / analyse=0x3:0x133 / me=umh / subme=9 / psy=1 / psy_rd=1.00:0.10 / mixed_ref=1 / me_range=32 / chroma_me=1 / trellis=1 / 8x8dct=1 / cqm=0 / deadzone=21,11 / fast_pskip=0 / chroma_qp_offset=-3 / threads=6 / sliced_threads=0 / nr=0 / decimate=1 / interlaced=0 / bluray_compat=0 / constrained_intra=0 / bframes=11 / b_pyramid=2 / b_adapt=2 / b_bias=0 / direct=3 / weightb=1 / open_gop=0 / weightp=2 / keyint=250 / keyint_min=23 / scenecut=40 / intra_refresh=0 / rc_lookahead=40 / rc=2pass / mbtree=1 / bitrate=8534 / ratetol=1.0 / qcomp=0.60 / qpmin=10 / qpmax=51 / qpstep=4 / cplxblur=20.0 / qblur=0.5 / ip_ratio=1.40 / aq=1:1.00
Language : English
Audio #2
ID : 2
Format : AC-3
Format/Info : Audio Coding 3
Codec ID : A_AC3
Duration : 1h 46mn
Bit rate mode : Constant
Bit rate : 384 Kbps
Channel(s) : 6 channels
Channel positions : Front: L C R, Surround: L R, LFE
Sampling rate : 48.0 KHz
Stream size : 292 MiB (4%)
Language : Ukrainian
Audio #3
ID : 3
Format :
Format/Info : Digital Theater Systems
Codec ID : A_DTS
Duration : 1h 46mn
Bit rate mode : Constant
Bit rate : 1 510 Kbps
Channel(s) : 6 channels
Channel positions : Front: L C R, Surround: L R, LFE
Sampling rate : 48.0 KHz
Resolution : 24 bits
Video delay : 11ms
Stream size : 1.12 GiB (14%)
Language : English
Text #4
ID : 4
Format : UTF-8
Codec ID : S_TEXT/UTF8
Codec ID/Info : UTF-8 Plain Text
Language : English
Скріншоти




Особиста оцінка: 7/10


 Трекер:    Зареєстрований   

Завантажити / скачати фільм українською



відео для новачків



 Зареєстрований:   2012-01-03 20:24
 Розмір:   7.73 GB 
 Оцінка фільму:   7.2/10 (Голосів: 10)
   
Ваш часовий пояс: GMT + 2 Години

Нова тема   Відповісти