Завантажити та скачати торренти українською


Прибуття / The Arrival (1996) 720p Ukr/Eng | Sub Eng

Нові коментарі

Нова тема   Відповісти
Автор Повідомлення
Віктор 
Відео Гуртом - субтитрування
Відео Гуртом - субтитрування


З нами з: 09.01.10
Востаннє: 06.12.16
Повідомлень: 8663

2012-01-03 14:19  
Прибуття / The Arrival (1996) 720p Ukr/Eng | Sub Eng

Прибуття / The Arrival (1996) 720p Ukr/Eng | Sub Eng

«The greatest danger facing our world has been the planet's best kept secret...until now. »


Жанр: фантастика, трилер, містика
Країна: США, Мексика



Кіностудія / кінокомпанія: Live Entertainment, Steelwork Films, Mediaworks
Режисер: Девід Туї (David Twohy)
Композитор: Артур Кемпел (Arthur Kempel)
Актори: Чарлі Шин (Charlie Sheen), Ліндсі Круз (Lindsay Crouse), Річард Шіфф (Richard Schiff), Рон Сілвер (Ron Silver), Тері Поло (Teri Polo) та інші.

Сюжет:
Одного разу радіо-астроном Зейн Замінскі почув сигнал з космосу. Однак за «відкриття століття» його начальник Джордан звільняє Зейна, з чого Замінскі робить висновок, що існує грандіозна змова з метою приховати встановлення контакту з неземною цивілізацією.
У пошуках доказів свого припущення Зейн приїжджає в мексиканську провінцію, де знайомиться з Ілан Ґрін, спеціалісткою в галузі прогнозів погоди для всієї планети. Тут, в Мексиці, з ризиком для життя Зейн дізнається, що інопланетяни у нас на Землі відчувають себе господарями.
Номінація

Сатурн, 1997 рік
Переможець (1):
Найкраще VHS-відання


• Бюджет - $25,000,000
MediaInfo

Код:
General
Unique ID                                : 252312690278486494125894395037357699838 (0xBDD1A8140784CF20869527ACA527F2FE)
Complete name                            : D:\HURTOM\The Arrival (1996) [Ukr, Eng] 720p [Hurtom].mkv
Format                                   : Matroska
Format version                           : Version 2
File size                                : 6.85 GiB
Duration                                 : 1h 55mn
Overall bit rate                         : 8 479 Kbps
Movie name                               : The Arrival (1996) [Ukr, Eng] 720p [Hurtom]
Encoded date                             : UTC 2012-01-03 15:13:52
Writing application                      : mkvmerge v5.0.1 ('Es ist Sommer') built on Oct  9 2011 11:55:43
Writing library                          : libebml v1.2.2 + libmatroska v1.3.0

Video
ID                                       : 1
Format                                   : AVC
Format/Info                              : Advanced Video Codec
Format profile                           : [email protected]
Format settings, CABAC                   : Yes
Format settings, ReFrames                : 6 frames
Format settings, GOP                     : N=1
Codec ID                                 : V_MPEG4/ISO/AVC
Duration                                 : 1h 55mn
Bit rate                                 : 6 608 Kbps
Width                                    : 1 280 pixels
Height                                   : 694 pixels
Display aspect ratio                     : 16:9
Frame rate                               : 23.976 fps
Color space                              : YUV
Chroma subsampling                       : 4:2:0
Bit depth                                : 8 bits
Scan type                                : Progressive
Bits/(Pixel*Frame)                       : 0.310
Stream size                              : 5.18 GiB (76%)
Title                                    : The Arrival (1996) [Ukr, Eng] 720p [Hurtom]
Writing library                          : core 72 r1232M c8edc12
Encoding settings                        : cabac=1 / ref=6 / deblock=1:-3:-3 / analyse=0x3:0x113 / me=umh / subme=9 / psy=1 / psy_rd=1.2:0.0 / mixed_ref=1 / me_range=64 / chroma_me=1 / trellis=2 / 8x8dct=1 / cqm=0 / deadzone=21,11 / chroma_qp_offset=-2 / threads=6 / nr=0 / decimate=1 / mbaff=0 / bframes=8 / b_pyramid=1 / b_adapt=2 / b_bias=0 / direct=3 / wpredb=1 / keyint=250 / keyint_min=25 / scenecut=40 / rc=2pass / mbtree=0 / bitrate=6608 / ratetol=1.0 / qcomp=0.60 / qpmin=10 / qpmax=51 / qpstep=4 / cplxblur=20.0 / qblur=0.5 / ip_ratio=1.40 / pb_ratio=1.30 / aq=1:1.00
Language                                 : English

Audio #1
ID                                       : 2
Format                                   : AC-3
Format/Info                              : Audio Coding 3
Mode extension                           : CM (complete main)
Codec ID                                 : A_AC3
Duration                                 : 1h 55mn
Bit rate mode                            : Constant
Bit rate                                 : 384 Kbps
Channel(s)                               : 6 channels
Channel positions                        : Front: L C R, Side: L R, LFE
Sampling rate                            : 48.0 KHz
Bit depth                                : 16 bits
Compression mode                         : Lossy
Stream size                              : 318 MiB (5%)
Title                                    : 5.1 @ 384 kbps - багатоголосий закадровий
Language                                 : Ukrainian

Audio #2
ID                                       : 3
Format                                   :
Format/Info                              : Digital Theater Systems
Codec ID                                 : A_DTS
Duration                                 : 1h 55mn
Bit rate mode                            : Constant
Bit rate                                 : 1 510 Kbps
Channel(s)                               : 6 channels
Channel positions                        : Front: L C R, Side: L R, LFE
Sampling rate                            : 48.0 KHz
Bit depth                                : 24 bits
Compression mode                         : Lossy
Stream size                              : 1.22 GiB (18%)
Title                                    : 5.1 @ 1536 kbps
Language                                 : English

Text
ID                                       : 4
Format                                   : UTF-8
Codec ID                                 : S_TEXT/UTF8
Codec ID/Info                            : UTF-8 Plain Text
Language                                 : English
Релізи та інформація про озвучення/дублювання

Завантажити:
720p Ukr/Eng | Sub Eng (6.85 GB) - багатоголосий закадровий звук записаний з ICTV
Ukr/Eng | Sub Eng (2.18 GB) - багатоголосий закадровий звук записаний з ICTV

Ролі озвучили: Тетяна Зіновенко?
Тривалість: 01:55:16
Якість: 720р (DON)
Відео:
кодек:
розмір кадру: 1280x694
бітрейт: 6608 кб/с

Аудіо # 1:
мова: українська
переклад: багатоголосий закадровий звук записаний з ICTV
кодек: 5.1
бітрейт: 384 кб/с

Аудіо # 2:
мова: англійська
переклад: оригінал
кодек: 5.1
бітрейт: 1536 кб/с

Субтитри:
мова: англійська
тип: програмні (м'які)
формат: *.srt

Скріншоти:





За синхронізацію укр. доріжки подяка robotron005


Джерело:

Особиста оцінка: 8


Срібний реліз (на рейтинг впливає 50% завантаженого)
 Трекер:    Зареєстрований   

Завантажити / скачати фільм українською



відео для новачків



 Зареєстрований:   2012-01-03 17:55
 Розмір:   6.85 GB 
 Оцінка фільму:   7.3/10 (Голосів: 14)
   
Інші релізи
   Прибуття / The Arrival (1996) [MP4, 640x] apvAltisimo  0 / 0   999 MB   2015-09-10 17:05 
   Прибуття / The Arrival (1996) Ukr/Eng robotron005  5 / 1   2.18 GB   2011-10-03 19:45 
bot 
робот


З нами з: 30.09.07
Востаннє: 26.05.05
Повідомлень: 16005

2012-01-03 17:55  
Тему перенесено з Анонси релізів від Відео Гуртом до форуму Фільми в HD


w2958l

AndriyVoron 
Свій


З нами з: 30.11.10
Востаннє: 03.12.16
Повідомлень: 127

2012-01-04 21:15  
Шикарне кіно. Динамічне з кількома цікавими думками. та сюжетними ідеями. Що правда одноразове.
DAREX51 
Новенький


З нами з: 15.02.12
Востаннє: 02.07.16
Повідомлень: 1

2015-01-11 19:10  
Будь-ласка, станьте на роздачу.
waldi-hurtom 
VIP


З нами з: 07.10.12
Востаннє: 05.12.16
Повідомлень: 611

2015-01-22 00:31  
Будь-ласка, станьте на роздачу! Вже 5 днів качаю.
P.S. Якби ще швидкості - бо 6 днів повзе. 52% Не хочеться кацапською дивитись, коли є українська!

Ваш часовий пояс: GMT + 2 Години

Нова тема   Відповісти