Завантажити та скачати торренти українською


Древо - Багатоголосся (2008) [FLAC] | Folk

Нові коментарі

Нова тема   Відповісти
Автор Повідомлення
gosha.samovar 
VIP


З нами з: 08.09.10
Востаннє: 10.12.16
Повідомлень: 400

2011-12-28 03:58  
Древо - Багатоголосся (2008) [FLAC] | Folk

Древо - Багатоголосся (2008) [FLAC] | Folk


Стиль: Ethno Folk
Країна, місто: Україна, село Крячківка (Полтавщина)
Видавець: "Taras Bulba entertainment"
Пісні:
    01. Ой, давно, давно
    02. Ой, не літай же ти, чорная галка
    03. Да й любив парень
    04. Ой у полі билина стояла
    05. Та й забіліли сніжки
    06. Ой, там на горі
    07. Ой, у полі древо
    08. Соловею канарею
EAC log
Exact Audio Copy V1.0 beta 3 from 29. August 2011

Отчёт EAC об извлечении, выполненном 27. декабря 2011, 14:12

Древо / Багатоголосся

Дисковод: PHILIPS SPD2519T Adapter: 2 ID: 0

Режим чтения : Достоверность
Использование точного потока : Да
Отключение кэша аудио : Да
Использование указателей C2 : Нет

Коррекция смещения при чтении : 6
Способность читать области Lead-in и Lead-out : Нет
Заполнение пропущенных сэмплов тишиной : Да
Удаление блоков с тишиной в начале и конце : Нет
При вычислениях CRC использовались нулевые сэмплы : Да
Интерфейс : Встроенный Win32-интерфейс для Win NT/2000

Выходной формат : Пользовательский кодировщик
Выбранный битрейт : 1024 kBit/s
Качество : Высокий
Добавление ID3-тега : Нет
Утилита сжатия : D:\soft_2\EAC\Exact Audio Copy\Flac\flac.exe
Дополнительные параметры : -V -8 -T "Date=%year%" -T "Genre=%genre%" %source%

TOC извлечённого CD

Трек | Старт | Длительность | Начальный сектор | Конечный сектор
---------------------------------------------------------------------
1 | 0:00.00 | 4:56.27 | 0 | 22226
2 | 4:56.27 | 2:00.71 | 22227 | 31297
3 | 6:57.23 | 3:36.28 | 31298 | 47525
4 | 10:33.51 | 5:20.16 | 47526 | 71541
5 | 15:53.67 | 3:10.41 | 71542 | 85832
6 | 19:04.33 | 5:16.49 | 85833 | 109581
7 | 24:21.07 | 3:56.24 | 109582 | 127305
8 | 28:17.31 | 4:12.20 | 127306 | 146225

Характеристики диапазона извлечения и сообщения об ошибках

Выбранный диапазон

Имя файла E:\Музіка!\from EAC\Древо - Багатоголосся.wav

Пиковый уровень 79.4 %
Скорость извлечения 2.4 X
Качество диапазона 100.0 %
CRC теста D46EE5BF
CRC копии D46EE5BF
Копирование... OK

Ошибок не произошло

Конец отчёта

==== Контрольная сумма отчёта 5D965784BA46346534873756287FD9D13080DFC822B7F6A157CD19B05D6C4C8B ====
Тривалість: 00:32:29
Мова: українська
Аудіо-кодек: FLAC
Бітрейт: 825 кб/с
Джерело: власний ріп власного CD
Додаткова інформація
"Древо" - Ансамбль села Крячківка (Полтавщина), відомий далеко за межами України своєю унікальною технікою багатоголосся, вперше зібрався 1958 року. Зараз виступає вже його третій склад. Учасниці "Древа" виконують старовинні (XVIII-XIX ст.) пісні Полтавщини, а також пісні, складені чи доповнені ними самими. До останніх належить пісня "Соловею-канарею", колись почута по радіо найстаршою учасницею гурту – Галиною Попко. Пісня дуже сподобалась їй, і, не маючи змоги знайти оригінальний текст, Ганна Якимівна доповнила її своїми словами, а також розклала для "Древа" на три голоси.
Якщо Ви справді бажаєте підтримати українське - після прослуховування, якщо музика вам сподобалась, придбайте ліцензійний диск. Підтримаймо вітчизняних виконавців!


Срібний реліз (на рейтинг впливає 50% завантаженого)
 Трекер:    Зареєстрований   

Завантажити / скачати українську музику



відео для новачків



 Зареєстрований:   2011-12-28 04:05
 Розмір:   194 MB 
 Оцінка музики:   9.9/10 (Голосів: 15)
   
gosha.samovar 
VIP


З нами з: 08.09.10
Востаннє: 10.12.16
Повідомлень: 400

2011-12-28 04:09  
Це вже - інше "Древо" Happy
TheSlobodchikov 
Новенький


З нами з: 05.05.16
Востаннє: 05.05.16
Повідомлень: 1

2016-05-05 06:44  
Раздайте.
Abarovska 
Новенький


З нами з: 01.11.14
Востаннє: 16.11.16
Повідомлень: 1

2016-11-04 15:34  
Дякую! дуже подобається!
Ваш часовий пояс: GMT + 2 Години

Нова тема   Відповісти