Завантажити та скачати торренти українською


Всі в захваті від Мері / Всі шаленіють від Мері / There`s Something About Mary (1998) 720p 2хUkr/Eng | Sub Eng

Нові коментарі

Нова тема   Відповісти
Автор Повідомлення
Sando7 
Відео Гуртом - запис з ТБ
Відео Гуртом - запис з ТБ


З нами з: 04.05.09
Востаннє: 07.12.16
Повідомлень: 840

2011-12-27 10:16  
Всі в захваті від Мері / Всі шаленіють від Мері / There`s Something About Mary (1998) 720p 2хUkr/Eng | Sub Eng

Всі в захваті від Мері / Всі шаленіють від Мері / There`s Something About Mary (1998) 720p 2хUkr/Eng | Sub Eng


Жанр: мелодрама, комедія
Країна: США



Режисер: Боббі Фарреллі, Пітер Фарреллі
Актори: Камерон Діаз, Метт Діллон, Бен Стіллер, Лі Еванс, Кріс Еліот, Лін Шей, Джефрі Тембор, Маркі Пост, Кіт Девід, У. Ерл Браун

Сюжет:
Все почалося 13 років тому з враженої “гідності” Теда, хронічного невдахи такого, що постійно ставить себе в комічні ситуації: він настільки боязкий, що здатний довести власного психіатра, настільки безглуздий, що здатний в найвідповідальніший момент прищемити свою чоловічу гідність блискавкою брюк. Цьому недотепі, не особливо везе в житті, та зате одного разу повезло в любові: коли йому було 17 він зустрів Мері. Вони збиралися на шкільну вечірку, але тут якраз і відбувся неприємний випадок з блискавкою, що закінчив їх роман.
І ось, через 13 років Тед наймає приватного детектива Пета для пошуку жінки своєї мрії.
Мері володіє фантастичним даром, чарувати всіх оточуючих її чоловіків. Її шарм і чарівність примушують їх кидатися в безкомпромісну боротьбу за серце красуні.

СЕМПЛ З РЕЛІЗУ НА YOUTUBE + трейлер на YOUTUBE
Тривалість: 01:59:05
Якість:
Відео:
кодек:
розмір кадру: 1280 x 692
бітрейт: 4764 кб/с

Аудіо # 1:
мова: українська
переклад: двоголосий закадровий
кодек: 2.0
бітрейт: 192 кб/с

Аудіо # 2:
мова: українська
переклад: двоголосий закадровий
кодек: 2.0
бітрейт: 192 кб/с
Доріжку для зведення взято з цього релізу Всі шаленіють від Мері / There`s Something About Mary (1998)

Аудіо # 3:
мова: англійська
переклад: оригінал
кодек: 5.1
бітрейт: 384 кб/с

Джерело озвучення:
та

Субтитри:
мова: англійська
тип: програмні (м'які)
формат: *.srt
MediaInfo
General
Unique ID : 191548555730324199532863105809952937613 (0x901AE8F1134154AA9FD783EF4402168D)
Complete name : D:\There`s Something About Mary.(1998)..2ukr 720p{bySando7}.mkv
Format : Matroska
Format version : Version 1
File size : 4.69 GiB
Duration : 1h 59mn
Overall bit rate mode : Variable
Overall bit rate : 5 638 Kbps
Movie name : There's Something About Mary (1998)
Encoded date : UTC 2012-01-09 19:31:37
Writing application : mkvmerge v2.4.1 ('Use Me') built on Dec 5 2008 18:30:05
Writing library : libebml v0.7.7 + libmatroska v0.8.1

Video
ID : 1
Format : AVC
Format/Info : Advanced Video Codec
Format profile : [email protected]
Format settings, CABAC : Yes
Format settings, ReFrames : 6 frames
Codec ID : V_MPEG4/ISO/AVC
Duration : 1h 59mn
Bit rate mode : Variable
Bit rate : 4 758 Kbps
Maximum bit rate : 4 865 Kbps
Width : 1 280 pixels
Height : 692 pixels
Display aspect ratio : 1.850
Frame rate : 23.976 fps
Color space : YUV
Chroma subsampling : 4:2:0
Bit depth : 8 bits
Scan type : Progressive
Bits/(Pixel*Frame) : 0.224
Stream size : 3.96 GiB (84%)
Title : Encoded by GYN
Default : Yes
Forced : No

Audio #1
ID : 2
Format : AC-3
Format/Info : Audio Coding 3
Mode extension : CM (complete main)
Codec ID : A_AC3
Duration : 1h 59mn
Bit rate mode : Constant
Bit rate : 192 Kbps
Channel(s) : 2 channels
Channel positions : Front: L R
Sampling rate : 48.0 KHz
Bit depth : 16 bits
Compression mode : Lossy
Stream size : 164 MiB (3%)
Language : Ukrainian
Default : Yes
Forced : No

Audio #2
ID : 3
Format : AC-3
Format/Info : Audio Coding 3
Mode extension : CM (complete main)
Codec ID : A_AC3
Duration : 1h 59mn
Bit rate mode : Constant
Bit rate : 192 Kbps
Channel(s) : 2 channels
Channel positions : Front: L R
Sampling rate : 48.0 KHz
Bit depth : 16 bits
Compression mode : Lossy
Stream size : 164 MiB (3%)
Language : Ukrainian
Default : No
Forced : No

Audio #3
ID : 4
Format : AC-3
Format/Info : Audio Coding 3
Mode extension : CM (complete main)
Codec ID : A_AC3
Duration : 1h 59mn
Bit rate mode : Constant
Bit rate : 384 Kbps
Channel(s) : 6 channels
Channel positions : Front: L C R, Side: L R, LFE
Sampling rate : 48.0 KHz
Bit depth : 16 bits
Compression mode : Lossy
Stream size : 327 MiB (7%)
Language : English
Default : No
Forced : No

Text
ID : 5
Format : UTF-8
Codec ID : S_TEXT/UTF8
Codec ID/Info : UTF-8 Plain Text
Language : English
Default : Yes
Forced : No
Скріншоти:



Реліз: & Джерело відео


Срібний реліз (на рейтинг впливає 50% завантаженого)
 Трекер:    Зареєстрований   

Завантажити / скачати фільм українською



відео для новачків



 Зареєстрований:   2012-01-10 18:56
 Розмір:   4.69 GB 
 Оцінка фільму:   9.6/10 (Голосів: 16)
   
Sando7 
Відео Гуртом - запис з ТБ
Відео Гуртом - запис з ТБ


З нами з: 04.05.09
Востаннє: 07.12.16
Повідомлень: 840

2012-01-10 18:59  
Оновив ...додано доріжку з трансляції телеканалу ТЕТ
Віктор 
Відео Гуртом - субтитрування
Відео Гуртом - субтитрування


З нами з: 09.01.10
Востаннє: 07.12.16
Повідомлень: 8663

2012-01-10 19:01  
Медіаінфо теж онови.
Sando7 
Відео Гуртом - запис з ТБ
Відео Гуртом - запис з ТБ


З нами з: 04.05.09
Востаннє: 07.12.16
Повідомлень: 840

2012-01-10 20:02  
w2958l написано:
Медіаінфо теж онови.

Оновив

DiGen 
Модератор HD та координатор Команди HD
Модератор HD та координатор Команди HD


З нами з: 12.11.09
Востаннє: 24.06.13
Повідомлень: 1452

2012-01-10 20:15  
В назві теми треба вказати 2хUkr
Віктор 
Відео Гуртом - субтитрування
Відео Гуртом - субтитрування


З нами з: 09.01.10
Востаннє: 07.12.16
Повідомлень: 8663

2012-01-10 20:16  
DiGen написано:
В назві теми треба вказати 2хUkr

Підправив.

Віктор 
Відео Гуртом - субтитрування
Відео Гуртом - субтитрування


З нами з: 09.01.10
Востаннє: 07.12.16
Повідомлень: 8663

2012-01-12 01:15  
В обох укр.доріжках усі чоловічі озвучує Дмитро Завадський
waldi-hurtom 
VIP


З нами з: 07.10.12
Востаннє: 07.12.16
Повідомлень: 611

2013-01-11 21:02  
Хто небудь може роздати цей фільм? Чекаю вже тиждень, а маю лише 0.1%
DеLight 
Відео Гуртом - фільмокрай
Відео Гуртом - фільмокрай


З нами з: 24.08.11
Востаннє: 17.11.16
Повідомлень: 664

2013-01-14 14:06  
Крута комедія, нічого не скажеш, зараз таких немає, заслуга не в останню чергу акторського складу =))
waldi-hurtom 
VIP


З нами з: 07.10.12
Востаннє: 07.12.16
Повідомлень: 611

2013-01-18 19:39  
На рідкість дурнувата комедія, деякі брудні жарти не для снобів (нижче плітнуса), але сміх і гарний настрій гарантовані. Обов'язково подивіться кадри, що не увійшли до фільму наприкінці. Happy 8 балів.
ukdesign 
Забанено
Забанено


З нами з: 02.06.12
Востаннє: 17.10.14
Повідомлень: 55

2014-02-02 19:41  
Крутяк)
Ваш часовий пояс: GMT + 2 Години

Нова тема   Відповісти