Завантажити та скачати торренти українською


Друзі по сексу / Friends with Benefits (2011) 1080p Ukr/Eng | Sub Eng

Нові коментарі

Нова тема   Відповісти
Автор Повідомлення
Anonymous 







2011-12-25 16:07  
Друзі по сексу / Friends with Benefits (2011) 1080p Ukr/Eng | Sub Eng

Друзі по сексу / Friends with Benefits (2011) 1080p Ukr/Eng | Sub Eng
Український постер:
Жанр: комедія, романтичний
Країна: США



Кіностудія / кінокомпанія: Screen Gems, Castle Rock Entertainment, Zucker Productions
Режисер: Уілл Глюк (Will Gluck)
Актори: Міла Куніс (Mila Kunis), Джастін Тімберлейк (Justin Timberlake), Річард Дженкінс (Richard Jenkins), Вуді Харрельсон (Woody Harrelson), Патриція Кларксон (Patricia Clarkson), Брайан Грінберг (Bryan Greenberg), Дженна Елфмен (Jenna Elfman) та інші.

Сюжет 1:
Дружбу сексом не зіпсувати! Він дуже привабливий, вона – просто втілення сексуальності, обидва молоді і повні енергії. Натомість життя занадто динамічне, і зовсім ніколи витрачати його на флірт, примхи "коханої" та ревнощі. Більш того, їм зовсім не хочеться стримувати свої бажання, особливо якщо у обох тільки одне спільне в голові. То чому ж двом прекрасним людям, майже напівбогам, не витягнути з цієї дружби максимум задоволення і додати трохи пікантності до стосунків!


Сюжет 2:
Клон нещодавньої стрічки "Більше ніж секс" (No Strings Attached), в якому замінили лише акторів. Сюжет же практично той самий - двоє працівників "офісної ниви" вирішують займатись сексом без жодних зобов'язань, які вносять в життя стільки "неприємностей". Та людська натура дає про себе знати і через деякий час героям виявляється замало просто сексу, тож після деяких поневірянь і дурних вчинків вони таки приходять до простого людського щастя удвох.


Тривалість: 01:49:25
Якість: [DON]

Відео:
кодек:
розмір кадру: 1920x804
бітрейт: 11.5 мб/с

Аудіо 1:
мова: українська
переклад: професійний дубльований
кодек: 5.1
бітрейт: 640 кб/с

Аудіо 2:
мова: англійська
переклад: оригінал
кодек: 5.1
бітрейт: 1536 кб/с

Аудіо 3:
мова: англійська | Commentary with Will Gluck, Justin Timberlake and Mila Kunis
переклад: оригінал
кодек: 2.0
бітрейт: 192 кб/с

Джерело озвучення:
/ Ліцензія

Субтитри 1:
мова: українська (Forced)
тип: програмні (м'які)
формат: *.srt

Субтитри 2:
мова: англійська
тип: програмні (м'які)
формат: *.srt

Субтитри 3:
мова: англійська (SDH)
тип: програмні (м'які)
формат: *.srt

Субтитри 4:
мова: англійська (Commentary)
тип: програмні (м'які)
формат: *.srt
MediaInfo

Format : Matroska
File size : 10.6 GiB
Duration : 1h 49mn
Overall bit rate : 13.8 Mbps
Movie name : Friends with Benefits (2011)
Encoded date : UTC 2011-12-25 13:40:15
Writing application : mkvmerge v2.4.2 ('Oh My God') built on Jan 18 2009 17:30:28
Writing library : libebml v0.7.7 + libmatroska v0.8.1
Video #1
ID : 1
Format : AVC
Format/Info : Advanced Video Codec
Format profile : [email protected]
Format settings, CABAC : Yes
Format settings, ReFrames : 4 frames
Muxing mode : Container [email protected]
Codec ID : V_MPEG4/ISO/AVC
Duration : 1h 49mn
Bit rate : 11.2 Mbps
Nominal bit rate : 11.5 Mbps
Width : 1 920 pixels
Height : 804 pixels
Display aspect ratio : 2.35:1
Frame rate : 23.976 fps
Resolution : 24 bits
Colorimetry : 4:2:0
Scan type : Progressive
Bits/(Pixel*Frame) : 0.303
Stream size : 8.57 GiB (81%)
Title : Release for HDCLUB
Writing library : core 116 r2057 0ba8a9c
Encoding settings : cabac=1 / ref=3 / deblock=1:-3:-3 / analyse=0x3:0x133 / me=tesa / subme=10 / psy=1 / psy_rd=1.05:0.05 / mixed_ref=1 / me_range=32 / chroma_me=1 / trellis=2 / 8x8dct=1 / cqm=0 / deadzone=21,11 / fast_pskip=0 / chroma_qp_offset=-3 / threads=18 / sliced_threads=0 / nr=0 / decimate=0 / interlaced=0 / bluray_compat=0 / constrained_intra=0 / bframes=7 / b_pyramid=2 / b_adapt=1 / b_bias=0 / direct=3 / weightb=1 / open_gop=0 / weightp=2 / keyint=250 / keyint_min=23 / scenecut=40 / intra_refresh=0 / rc_lookahead=150 / rc=2pass / mbtree=0 / bitrate=11500 / ratetol=1.0 / qcomp=0.65 / qpmin=0 / qpmax=40 / qpstep=4 / cplxblur=20.0 / qblur=0.5 / vbv_maxrate=50000 / vbv_bufsize=50000 / nal_hrd=none / ip_ratio=1.25 / pb_ratio=1.25 / aq=1:0.90
Language : English
Audio #2
ID : 2
Format : AC-3
Format/Info : Audio Coding 3
Codec ID : A_AC3
Duration : 1h 49mn
Bit rate mode : Constant
Bit rate : 640 Kbps
Channel(s) : 6 channels
Channel positions : Front: L C R, Surround: L R, LFE
Sampling rate : 48.0 KHz
Stream size : 501 MiB (5%)
Title : Dub (CEE Blu-Ray) 5.1 640 kbps
Language : Ukrainian
Audio #3
ID : 3
Format :
Format/Info : Digital Theater Systems
Codec ID : A_DTS
Duration : 1h 49mn
Bit rate mode : Constant
Bit rate : 1 510 Kbps
Channel(s) : 6 channels
Channel positions : Front: L C R, Surround: L R, LFE
Sampling rate : 48.0 KHz
Resolution : 24 bits
Video delay : 11ms
Stream size : 1.15 GiB (11%)
Title : 5.1 1536 kbps
Language : English
Audio #4
ID : 4
Format : AC-3
Format/Info : Audio Coding 3
Format profile : Dolby Digital
Codec ID : A_AC3
Duration : 1h 49mn
Bit rate mode : Constant
Bit rate : 192 Kbps
Channel(s) : 2 channels
Channel positions : L R
Sampling rate : 48.0 KHz
Stream size : 150 MiB (1%)
Title : Commentary with Director Will Gluck and Actors Justin Timberlake and Mila Kunis 2.0 192 kbps
Language : English
Text #5
ID : 5
Format : UTF-8
Codec ID : S_TEXT/UTF8
Codec ID/Info : UTF-8 Plain Text
Title : Forced
Language : Ukrainian
Text #6
ID : 6
Format : UTF-8
Codec ID : S_TEXT/UTF8
Codec ID/Info : UTF-8 Plain Text
Language : English
Text #7
ID : 7
Format : UTF-8
Codec ID : S_TEXT/UTF8
Codec ID/Info : UTF-8 Plain Text
Title : SDH
Language : English
Text #8
ID : 8
Format : UTF-8
Codec ID : S_TEXT/UTF8
Codec ID/Info : UTF-8 Plain Text
Title : Commentary with Director Will Gluck and Actors Justin Timberlake and Mila Kunis
Language : English
Світлини:


Особиста оцінка: 8/10
Джерело:


 Трекер:    Зареєстрований   

Завантажити / скачати фільм українською



відео для новачків



 Зареєстрований:   2011-12-25 16:07
 Розмір:   10.58 GB 
 Оцінка фільму:   9.2/10 (Голосів: 14)
   
Інші релізи
leroykendall 
Модератор HD


З нами з: 03.01.11
Востаннє: 20.11.16
Повідомлень: 749

2011-12-25 18:27  
О так це вже другий: http://toloka.to/t29388
Дякую за реліз.

Violator 
VIP


З нами з: 14.04.09
Востаннє: 08.12.16
Повідомлень: 568

2011-12-25 20:05  
Не вантажитиму, бо не тре. Але хотілося б подякувати релізерові, ось так, ІМХО, повинно виглядяти відео в розділі ХД: з коментарями та субтитрами до них!!!!! Rolleyes (3) Відмінна робота!!!!
Dim-ON 
VIP


З нами з: 02.06.10
Востаннє: 06.12.16
Повідомлень: 431

2011-12-25 23:02  
Гість написано:
Друзі по сексу / Friends with Benefits (2011) 1080p Ukr/Eng | Sub Ukr/Eng

Форсовані субтитри важко назвати "повноцінними" субтитрами, тому, НМД, їх не потрібно вказувати в назві релізу, адже це може ввести в оману людей, які дійсно хотіли б переглянути дану стрічку з українськими сабами.

Віктор 
Відео Гуртом - субтитрування
Відео Гуртом - субтитрування


З нами з: 09.01.10
Востаннє: 08.12.16
Повідомлень: 8663

2011-12-26 13:27  
Dim-ON написано:
Форсовані субтитри важко назвати "повноцінними" субтитрами


Гість, що незрозуміло? Прибрати з назви теми і шапки.

bot 
робот


З нами з: 30.09.07
Востаннє: 26.05.05
Повідомлень: 16030

2012-09-21 14:20  
Тему перенесено з Фільми в HD до форуму Неоформлене відео


urij546724

Ваш часовий пояс: GMT + 2 Години

Нова тема   Відповісти