Завантажити та скачати торренти українською


Люди Ікс: Перший клас / X-Men: First Class (2011) 1080p Ukr/Eng | Sub Multi

Нові коментарі

Нова тема   Відповісти
Автор Повідомлення
leroykendall 
Модератор HD


З нами з: 03.01.11
Востаннє: 20.11.16
Повідомлень: 749

2011-12-25 01:01  
Люди Ікс: Перший клас / X-Men: First Class (2011) 1080p Ukr/Eng | Sub Multi

Люди Ікс: Перший клас / X-Men: First Class (2011) 1080p Ukr/Eng | Sub Multi

Their powers would make them different. But destiny would make them allies.


Жанр: фантастика, бойовик, трилер, драма, пригоди
Країна: США






Кіностудія / кінокомпанія: Twentieth Century Fox Film Corporation, Marvel Studios Inc.
Режисер: Метью Вон (Matthew Vaughn)
Актори: Джеймс МакЕвой (James McAvoy), Майкл Фассбендер (Michael Fassbender), Кевін Бейкон (Kevin Bacon), Калеб Лендрі Джонс (Caleb Landry Jones), Ніколас Голт (Nicholas Hoult), Лукас Тілл (Lucas Till), Дженніфер Лоуренс (Jennifer Lawrence), Джейсон Флемінг (Jason Flemyng), Зої Кравіц (Zoë Kravitz), Дженьюері Джонс (January Jones)

Сюжет:
Історія про те, як познайомились телепат Чарлз Ксав’єр (професор Ікс) та володар магнетичної сили, колишній в’язень концтабору Ерік Леншер (Магнето). Спочатку вони разом відстоювали інтереси мутантів, потім їх дружба перетворилась на ворожнечу…


Тривалість: 02:11:42
Якість: 1080p (ріп від: evgesha82)
Відео:
кодек:
розмір кадру: 1920 x 816
бітрейт: 11500 кб/с

Аудіо # 1:
мова: українська
переклад: професійний дубльований
кодек: 5.1
бітрейт: 448 кб/с

Аудіо # 2:
мова: англійська
переклад: оригінал
кодек: 5.1
бітрейт: 1536 кб/с

Джерело озвучення:


Субтитри:
мова: українська
тип: програмні (м'які)
формат: *.srt

Субтитри:
мова: англійська (форсовані)
тип: програмні (м'які)
формат: *.srt

Субтитри:
мова: англійська (повні)
тип: програмні (м'які)
формат: *.srt

Субтитри:
мова: болгарська, китайська, чеська, голандська, грецька, хорватська, польська, португальська, румунська, іспанська, шведська, турецька
тип: програмні (м'які)
формат: *.srt
MediaInfo
General
Complete name : W:\X-Men.First.Class.1080p.2011\X-Men. First Class (2011) [Ukr, Eng] 1080p [Hurtom, HDClub, rutracker] by leroykendall.mkv
Format : Matroska
File size : 12.7 GiB
Duration : 2h 11mn
Overall bit rate : 13.8 Mbps
Movie name : X-Men: First Class (2011) [Ukr, Eng] 1080p [Hurtom, HDClub, rutracker] by leroykendall
Encoded date : UTC 2011-12-25 06:55:52
Writing application : mkvmerge v4.9.1 ('Ich will') зібрано Jul 11 2011 23:53:15
Writing library : libebml v1.2.1 + libmatroska v1.1.1

Video
ID : 1
Format : AVC
Format/Info : Advanced Video Codec
Format profile : [email protected]
Format settings, CABAC : Yes
Format settings, ReFrames : 4 frames
Muxing mode : Container [email protected]
Codec ID : V_MPEG4/ISO/AVC
Duration : 2h 11mn
Bit rate : 11.5 Mbps
Nominal bit rate : 11.8 Mbps
Width : 1 920 pixels
Height : 816 pixels
Display aspect ratio : 2.35:1
Frame rate : 23.976 fps
Resolution : 24 bits
Colorimetry : 4:2:0
Scan type : Progressive
Bits/(Pixel*Frame) : 0.307
Stream size : 10.6 GiB (84%)
Title : AVC, 1920x816, 11800 kbps, 23.976 fps
Writing library : core 116 r2074 2641b9e
Encoding settings : cabac=1 / ref=4 / deblock=1:-3:-3 / analyse=0x3:0x113 / me=umh / subme=11 / psy=1 / psy_rd=1.08:0.08 / mixed_ref=1 / me_range=48 / chroma_me=1 / trellis=2 / 8x8dct=1 / cqm=0 / deadzone=21,11 / fast_pskip=0 / chroma_qp_offset=-3 / threads=6 / sliced_threads=0 / nr=0 / decimate=0 / interlaced=0 / bluray_compat=0 / constrained_intra=0 / bframes=10 / b_pyramid=2 / b_adapt=2 / b_bias=0 / direct=3 / weightb=1 / open_gop=0 / weightp=2 / keyint=250 / keyint_min=23 / scenecut=40 / intra_refresh=0 / rc=2pass / mbtree=0 / bitrate=11800 / ratetol=1.0 / qcomp=0.75 / qpmin=0 / qpmax=69 / qpstep=4 / cplxblur=20.0 / qblur=0.5 / ip_ratio=1.40 / pb_ratio=1.30 / aq=1:0.80

Audio #1
ID : 2
Format : AC-3
Format/Info : Audio Coding 3
Codec ID : A_AC3
Duration : 2h 11mn
Bit rate mode : Constant
Bit rate : 448 Kbps
Channel(s) : 6 channels
Channel positions : Front: L C R, Surround: L R, LFE
Sampling rate : 48.0 KHz
Video delay : 28ms
Stream size : 422 MiB (3%)
Title : Український професійний дубльований переклад - Blu-ray [ 5.1; 448 кб/с]
Language : Ukrainian

Audio #2
ID : 3
Format :
Format/Info : Digital Theater Systems
Codec ID : A_DTS
Duration : 2h 11mn
Bit rate mode : Constant
Bit rate : 1 510 Kbps
Channel(s) : 6 channels
Channel positions : Front: L C R, Surround: L R, LFE
Sampling rate : 48.0 KHz
Resolution : 24 bits
Stream size : 1.39 GiB (11%)
Title : Оригінальна доріжка - Blu Ray [ 5.1; 1536 kbps]

Text #1
ID : 4
Format : UTF-8
Codec ID : S_TEXT/UTF8
Codec ID/Info : UTF-8 Plain Text
Title : Українські субтитри - Blu-ray @ srt
Language : Ukrainian

Text #2
ID : 5
Format : UTF-8
Codec ID : S_TEXT/UTF8
Codec ID/Info : UTF-8 Plain Text
Title : Форсовані @ srt

Text #3
ID : 6
Format : UTF-8
Codec ID : S_TEXT/UTF8
Codec ID/Info : UTF-8 Plain Text
Title : Повні @ srt

Text #4
ID : 7
Format : UTF-8
Codec ID : S_TEXT/UTF8
Codec ID/Info : UTF-8 Plain Text
Language : Bulgarian

Text #5
ID : 8
Format : UTF-8
Codec ID : S_TEXT/UTF8
Codec ID/Info : UTF-8 Plain Text
Language : Chinese

Text #6
ID : 9
Format : UTF-8
Codec ID : S_TEXT/UTF8
Codec ID/Info : UTF-8 Plain Text
Language : Czech

Text #7
ID : 10
Format : UTF-8
Codec ID : S_TEXT/UTF8
Codec ID/Info : UTF-8 Plain Text
Language : Dutch

Text #8
ID : 11
Format : UTF-8
Codec ID : S_TEXT/UTF8
Codec ID/Info : UTF-8 Plain Text
Language : Greek

Text #9
ID : 12
Format : UTF-8
Codec ID : S_TEXT/UTF8
Codec ID/Info : UTF-8 Plain Text
Language : Croatian

Text #10
ID : 13
Format : UTF-8
Codec ID : S_TEXT/UTF8
Codec ID/Info : UTF-8 Plain Text
Language : Polish

Text #11
ID : 14
Format : UTF-8
Codec ID : S_TEXT/UTF8
Codec ID/Info : UTF-8 Plain Text
Language : Portuguese

Text #12
ID : 15
Format : UTF-8
Codec ID : S_TEXT/UTF8
Codec ID/Info : UTF-8 Plain Text
Language : Romanian

Text #13
ID : 16
Format : UTF-8
Codec ID : S_TEXT/UTF8
Codec ID/Info : UTF-8 Plain Text
Language : Spanish

Text #14
ID : 17
Format : UTF-8
Codec ID : S_TEXT/UTF8
Codec ID/Info : UTF-8 Plain Text
Language : Swedish

Text #15
ID : 18
Format : UTF-8
Codec ID : S_TEXT/UTF8
Codec ID/Info : UTF-8 Plain Text
Language : Turkish

Menu
00:00:00.000 : en:00:00:00.000
00:04:21.553 : en:00:04:21.553
00:09:33.156 : en:00:09:33.156
00:14:03.426 : en:00:14:03.426
00:16:08.176 : en:00:16:08.176
00:22:10.829 : en:00:22:10.829
00:27:11.046 : en:00:27:11.046
00:28:46.350 : en:00:28:46.350
00:31:32.891 : en:00:31:32.891
00:36:07.540 : en:00:36:07.540
00:40:12.660 : en:00:40:12.660
00:44:16.487 : en:00:44:16.487
00:50:05.753 : en:00:50:05.753
00:54:00.863 : en:00:54:00.863
01:01:07.414 : en:01:01:07.414
01:08:17.927 : en:01:08:17.927
01:11:51.098 : en:01:11:51.098
01:14:06.525 : en:01:14:06.525
01:20:07.052 : en:01:20:07.052
01:23:43.226 : en:01:23:43.226
01:27:35.834 : en:01:27:35.834
01:28:51.243 : en:01:28:51.243
01:31:24.979 : en:01:31:24.979
01:33:33.900 : en:01:33:33.900
01:37:54.410 : en:01:37:54.410
01:39:55.197 : en:01:39:55.197
01:43:37.962 : en:01:43:37.962
01:47:44.166 : en:01:47:44.166
01:52:38.460 : en:01:52:38.460
01:56:44.623 : en:01:56:44.623
02:01:26.696 : en:02:01:26.696
02:04:24.248 : en:02:04:24.248
Скріншоти:






Джерело: &
Особиста оцінка: 9 - давно не бачив настільки якісне кіно


 Трекер:    Зареєстрований   

Завантажити / скачати фільм українською



відео для новачків



 Зареєстрований:   2011-12-25 15:31
 Розмір:   12.66 GB 
 Оцінка фільму:   9.2/10 (Голосів: 11)
   
Інші релізи
lpershyi 
Попереджень: 2
Попереджень: 2 


З нами з: 04.01.11
Востаннє: 30.11.16
Повідомлень: 2622

2011-12-25 01:24  
золото а то на толоці багацько релізів ніхто й не записуватиме Sad (1)
leroykendall 
Модератор HD


З нами з: 03.01.11
Востаннє: 20.11.16
Повідомлень: 749

2011-12-25 01:32  
lpershyi написано:
золото а то на толоці багацько релізів ніхто й не записуватиме

За новими правилами ХД ніякого металу не повинно бути.
Релізів то багато, а от нормального 1080р не було.

DiGen 
Модератор HD та координатор Команди HD
Модератор HD та координатор Команди HD


З нами з: 12.11.09
Востаннє: 24.06.13
Повідомлень: 1452

2011-12-25 01:56  
leroykendall написано:
X-Men. First Class (2011) [Ukr, Eng] 1080p [Hurtom] by leroykendall..mkv

leroykendall написано:
(ріп від: evgesha82)

Не стикується....
Я думаю правильніше
X-Men. First Class (2011) [Ukr, Eng] 1080p [Hurtom,HDClub,rutracker] by leroykendall.mkv
а Ви як думаєте?

leroykendall 
Модератор HD


З нами з: 03.01.11
Востаннє: 20.11.16
Повідомлень: 749

2011-12-25 02:28  
igorgladunyak
Так сам був здивований. rom (Romany) - це не румунська, не молдавська, а саме циганська.

Rah 
VIP


З нами з: 02.08.09
Востаннє: 30.11.16
Повідомлень: 307

2012-01-09 01:42  
Так тому що справжнє ім"я циганів є "ромали", а циган це слово образи яке ображає їхню націю як наприклад негер образа якою ображали рабів чорних людей з Африки!!!!! тепер будете знати))))
leroykendall 
Модератор HD


З нами з: 03.01.11
Востаннє: 20.11.16
Повідомлень: 749

2012-01-09 01:52  
Rah
А що ви на це скажете? "http://translate.google.com/#en|uk|romany"
Що google принижує національну гідність?

AlanAlan 
Почесний гуртомівець


З нами з: 29.06.08
Востаннє: 06.02.16
Повідомлень: 1377

2012-01-09 10:49  
Те, як себе називає народ чи община, не стосується релізу. Питання більше пасує до Форуму ніж до Толоки.
khimera 
Частий відвідувач


З нами з: 02.10.09
Востаннє: 29.07.15
Повідомлень: 42

2014-10-12 15:43  
Наші субтитри форсовані чи повні?
leroykendall 
Модератор HD


З нами з: 03.01.11
Востаннє: 20.11.16
Повідомлень: 749

2014-10-13 07:39  
khimera
Авжеж повні. Чого це вони мають бути форсованими?

Ваш часовий пояс: GMT + 2 Години

Нова тема   Відповісти