Завантажити та скачати торренти українською


Інший світ: Квадрологія / Underworld: Quadrology (2003/2006/2009/2012) 720p Ukr/Eng | Sub Ukr/Eng

Нові коментарі

Нова тема   Відповісти
Автор Повідомлення
Zeus62 
Відео Гуртом - команда HD
Відео Гуртом - команда HD


З нами з: 29.12.08
Востаннє: 16.11.16
Повідомлень: 330

2011-12-23 01:14  
Інший світ: Квадрологія / Underworld: Quadrology (2003/2006/2009) 720p Ukr/Eng | Sub Ukr/Eng

Інший світ: Квадрологія / Underworld: Quadrology (2003/2006/2009/2012) 720p Ukr/Eng | Sub Ukr/Eng


Жанр: екшн, фентезі, жахи, триллер, бойовик
Країна: США

Кіностудія / кінокомпанія: Lakeshore Entertainment
Режисер: Лен Уайзмен / Патрік Татопулос/Монс Морлінд, Бьерн Стейн
Інший світ (Режисерська версія) / Underworld (Director's Cut) (2003) 720p | Sub Ukr/Eng
Інший світ (Режисерська версія) / Underworld (Director's Cut) (2003) 720p | Sub Ukr/Eng

Інший світ: Квадрологія / Underworld: Quadrology (2003/2006/2009/2012) 720p Ukr/Eng | Sub Ukr/Eng




Актори: Кейт Бекінсейл, Скот Спідмен, Майкл Шін, Біл Найї, Шейн Броллі, Софія Майлз, Кевін Грев’ю, Стівен Макінтош
Сюжет: Вже кільканадцять століть триває запекла війна за панування у Іншому світі на Землі між кланами вампірів під проводом владного Крейвена та вовкулаків під керівництвом ненависного Люшіана. Ситуація пригнічується ще більше, коли молода мисливиця на вовкулаків Селіна закохується в людину і намагається врятувати її і від своїх і від чужих. Свою надію вона покладає на Віктора - одного із старійшин вампірів, якого вона таємно будить зі столітнього сну. Але цим вона відкриває ще більше жахливих таємниць.

Тривалість: 02:13:36
Якість:
Відео:
кодек:
розмір кадру: 1280 х 544
бітрейт: 3832 кб/с

Аудіо:
мова: українська
переклад: багатоголосий закадровий
кодек: 5.1
бітрейт: 754 кб/с

Субтитри:
1: мова: українська (на не перекладені місця)
тип: програмні (м'які)
формат: *.srt

2: мова: англійська
тип: програмні (м'які)
формат: *.srt
MediaInfo
Format : Matroska
File size : 4.29 GiB
Duration : 2h 13mn
Overall bit rate : 4 596 Kbps
Writing application : HandBrake 0.9.5
Writing library : libmkv 0.6.4.1

Video
ID : 1
Format : AVC
Format/Info : Advanced Video Codec
Format profile : [email protected]
Format settings, CABAC : Yes
Format settings, ReFrames : 12 frames
Codec ID : V_MPEG4/ISO/AVC
Duration : 2h 13mn
Bit rate : 3 832 Kbps
Width : 1 280 pixels
Height : 544 pixels
Display aspect ratio : 2.35:1
Frame rate mode : Variable
Frame rate : 23.976 fps
Color space : YUV
Chroma subsampling : 4:2:0
Bit depth : 8 bits
Scan type : Progressive
Bits/(Pixel*Frame) : 0.230
Stream size : 3.50 GiB (82%)
Writing library : core 112
Encoding settings : cabac=1 / ref=12 / deblock=1:-3:-3 / analyse=0x3:0x113 / me=umh / subme=10 / psy=1 / psy_rd=1,00:0,00 / mixed_ref=1 / me_range=34 / chroma_me=1 / trellis=2 / 8x8dct=1 / cqm=0 / deadzone=21,11 / fast_pskip=1 / chroma_qp_offset=-2 / threads=9 / sliced_threads=0 / nr=0 / decimate=1 / interlaced=0 / constrained_intra=0 / bframes=10 / b_pyramid=2 / b_adapt=1 / b_bias=0 / direct=1 / weightb=1 / open_gop=0 / weightp=2 / keyint=240 / keyint_min=23 / scenecut=40 / intra_refresh=0 / rc_lookahead=50 / rc=2pass / mbtree=1 / bitrate=3832 / ratetol=1,0 / qcomp=0,60 / qpmin=3 / qpmax=51 / qpstep=4 / cplxblur=20,0 / qblur=0,5 / ip_ratio=1,40 / aq=1:1,00
Language : English
Color primaries : BT.709-5, BT.1361, IEC 61966-2-4, SMPTE RP177
Transfer characteristics : BT.709-5, BT.1361
Matrix coefficients : BT.709-5, BT.1361, IEC 61966-2-4 709, SMPTE RP177

Audio
ID : 2
Format :
Format/Info : Digital Theater Systems
Codec ID : A_DTS
Duration : 2h 13mn
Bit rate mode : Constant
Bit rate : 754 Kbps
Channel(s) : 6 channels
Channel positions : Front: L C R, Side: L R, LFE
Sampling rate : 48.0 KHz
Bit depth : 24 bits
Compression mode : Lossy
Stream size : 721 MiB (16%)
Language : Ukrainian

Text #1
ID : 3
Format : UTF-8
Codec ID : S_TEXT/UTF8
Codec ID/Info : UTF-8 Plain Text
Language : Ukrainian

Text #2
ID : 4
Format : UTF-8
Codec ID : S_TEXT/UTF8
Codec ID/Info : UTF-8 Plain Text
Language : English
Скріншоти:

Інший світ 2: Еволюція / Underworld 2: Evolution (2006) 720p | Sub Eng
Інший світ 2: Еволюція / Underworld 2: Evolution (2006) 720p | Sub Eng

Інший світ: Квадрологія / Underworld: Quadrology (2003/2006/2009/2012) 720p Ukr/Eng | Sub Ukr/Eng




Актори: Кейт Бекінсейл, Скот Спідмен, Майкл Шін, Біл Найї, Шейн Броллі, Софія Майлз, Кевін Грев’ю, Стівен Макінтош
Сюжет: В зловіщому нічному світі, прихованому від поглядів сторонніх смертних, не затихає бесжалісна боротьба між двома кланами володарів темряви – вампірами і перевертнями. Настав час дізнатися про витоки вікової ворожнечі, що стала для вампіра-воїна Селін і Майкла, напівперевертня-напівлюдини, прокляттям і сенсом існування! Воюючи з могутніми ворогами з обох кланів, древніми магістрами смерті, вони пізнають криваву інтригу і заборонене кохання, щоби в темряві ночі викрити таємницю свого походження і свого спадку.

Тривалість: 01:46:21
Якість:
Відео:
кодек:
розмір кадру: 1280 х 534
бітрейт: 5011 кб/с

Аудіо:
мова: українська
переклад: багатоголосий закадровий
кодек: 5.1
бітрейт: 754 кб/с

Субтитри:
мова: англійська
тип: програмні (м'які)
формат: *.srt
MediaInfo
Format : Matroska
File size : 4.29 GiB
Duration : 1h 46mn
Overall bit rate : 5 775 Kbps
Writing application : HandBrake 0.9.5
Writing library : libmkv 0.6.4.1

Video
ID : 1
Format : AVC
Format/Info : Advanced Video Codec
Format profile : [email protected]
Format settings, CABAC : Yes
Format settings, ReFrames : 12 frames
Codec ID : V_MPEG4/ISO/AVC
Duration : 1h 46mn
Bit rate : 5 011 Kbps
Width : 1 280 pixels
Height : 534 pixels
Display aspect ratio : 2.35:1
Frame rate mode : Variable
Frame rate : 23.976 fps
Color space : YUV
Chroma subsampling : 4:2:0
Bit depth : 8 bits
Scan type : Progressive
Bits/(Pixel*Frame) : 0.306
Stream size : 3.64 GiB (85%)
Writing library : core 112
Encoding settings : cabac=1 / ref=12 / deblock=1:-3:-3 / analyse=0x3:0x113 / me=umh / subme=10 / psy=1 / psy_rd=1,00:0,00 / mixed_ref=1 / me_range=34 / chroma_me=1 / trellis=2 / 8x8dct=1 / cqm=0 / deadzone=21,11 / fast_pskip=1 / chroma_qp_offset=-2 / threads=9 / sliced_threads=0 / nr=0 / decimate=1 / interlaced=0 / constrained_intra=0 / bframes=10 / b_pyramid=2 / b_adapt=1 / b_bias=0 / direct=1 / weightb=1 / open_gop=0 / weightp=2 / keyint=240 / keyint_min=23 / scenecut=40 / intra_refresh=0 / rc_lookahead=50 / rc=2pass / mbtree=1 / bitrate=5011 / ratetol=1,0 / qcomp=0,60 / qpmin=3 / qpmax=51 / qpstep=4 / cplxblur=20,0 / qblur=0,5 / ip_ratio=1,40 / aq=1:1,00
Language : English
Color primaries : BT.709-5, BT.1361, IEC 61966-2-4, SMPTE RP177
Transfer characteristics : BT.709-5, BT.1361
Matrix coefficients : BT.709-5, BT.1361, IEC 61966-2-4 709, SMPTE RP177

Audio
ID : 2
Format :
Format/Info : Digital Theater Systems
Codec ID : A_DTS
Duration : 1h 46mn
Bit rate mode : Constant
Bit rate : 754 Kbps
Channel(s) : 6 channels
Channel positions : Front: L C R, Side: L R, LFE
Sampling rate : 48.0 KHz
Bit depth : 24 bits
Compression mode : Lossy
Stream size : 574 MiB (13%)
Language : Ukrainian

Text
ID : 3
Format : UTF-8
Codec ID : S_TEXT/UTF8
Codec ID/Info : UTF-8 Plain Text
Language : English
Скріншоти:

Інший світ 3: Повстання ліканів / Underworld 3: Rise of the Lycans (2009) 720p | Sub Eng
Інший світ 3: Повстання ліканів / Underworld 3: Rise of the Lycans (2009) 720p | Sub Eng

Інший світ: Квадрологія / Underworld: Quadrology (2003/2006/2009/2012) 720p Ukr/Eng | Sub Ukr/Eng




Актори: Рона Мітра, Скот Спідмен, Майкл Шін, Біл Найї, Шейн Броллі, Софія Майлз, Кевін Грев’ю, Стівен Макінтош
Сюжет: Третя частина саги розповідає про походження конфлікту між аристократами-вампірами та перевертнями-ліканами.
Раб-перевертень Луциан закохується у дочку ватажка вампірів Віктора Соню, і разом вони роблять спробу об’єднати
інших ліканів і звільнитись з темниць вампірів.

Тривалість: 01:32:28
Якість:
Відео:
кодек:
розмір кадру: 1280 х 536
бітрейт: 6007 кб/с

Аудіо:
мова: українська
переклад: професійний дубльований
кодек: 5.1
бітрейт: 640 кб/с

Субтитри:
мова: англійська
тип: програмні (м'які)
формат: *.srt
MediaInfo
Format : Matroska
File size : 4.29 GiB
Duration : 1h 32mn
Overall bit rate : 6 644 Kbps
Writing application : HandBrake 0.9.5
Writing library : libmkv 0.6.4.1

Video
ID : 1
Format : AVC
Format/Info : Advanced Video Codec
Format profile : [email protected]
Format settings, CABAC : Yes
Format settings, ReFrames : 16 frames
Codec ID : V_MPEG4/ISO/AVC
Duration : 1h 32mn
Bit rate : 6 007 Kbps
Width : 1 280 pixels
Height : 536 pixels
Display aspect ratio : 2.35:1
Frame rate mode : Variable
Frame rate : 23.976 fps
Color space : YUV
Chroma subsampling : 4:2:0
Bit depth : 8 bits
Scan type : Progressive
Bits/(Pixel*Frame) : 0.365
Stream size : 3.79 GiB (88%)
Writing library : core 112
Encoding settings : cabac=1 / ref=16 / deblock=1:-3:-3 / analyse=0x3:0x113 / me=umh / subme=10 / psy=1 / psy_rd=1,00:0,00 / mixed_ref=1 / me_range=64 / chroma_me=1 / trellis=2 / 8x8dct=1 / cqm=0 / deadzone=21,11 / fast_pskip=1 / chroma_qp_offset=-2 / threads=9 / sliced_threads=0 / nr=0 / decimate=1 / interlaced=0 / constrained_intra=0 / bframes=15 / b_pyramid=2 / b_adapt=2 / b_bias=0 / direct=1 / weightb=1 / open_gop=0 / weightp=2 / keyint=240 / keyint_min=23 / scenecut=40 / intra_refresh=0 / rc_lookahead=50 / rc=2pass / mbtree=1 / bitrate=6007 / ratetol=1,0 / qcomp=0,60 / qpmin=3 / qpmax=51 / qpstep=4 / cplxblur=20,0 / qblur=0,5 / ip_ratio=1,40 / aq=1:1,00
Language : English
Color primaries : BT.709-5, BT.1361, IEC 61966-2-4, SMPTE RP177
Transfer characteristics : BT.709-5, BT.1361
Matrix coefficients : BT.709-5, BT.1361, IEC 61966-2-4 709, SMPTE RP177

Audio
ID : 2
Format : AC-3
Format/Info : Audio Coding 3
Mode extension : CM (complete main)
Codec ID : A_AC3
Duration : 1h 32mn
Bit rate mode : Constant
Bit rate : 640 Kbps
Channel(s) : 6 channels
Channel positions : Front: L C R, Side: L R, LFE
Sampling rate : 48.0 KHz
Bit depth : 16 bits
Compression mode : Lossy
Stream size : 423 MiB (10%)
Language : Ukrainian

Text
ID : 3
Format : UTF-8
Codec ID : S_TEXT/UTF8
Codec ID/Info : UTF-8 Plain Text
Language : English
Скріншоти:

Інший світ 4: Пробудження / Underworld: Awakening (2012) 720p Ukr/Eng | Sub Eng

Інший світ 4: Пробудження / Underworld: Awakening (2012) 720p Ukr/Eng | Sub Eng

Інший світ: Квадрологія / Underworld: Quadrology (2003/2006/2009/2012) 720p Ukr/Eng | Sub Ukr/Eng

«Помста прокинулась»




Актори: Кейт Бекінсейл, Стівен Рі, Майкл Або, Тео Джеймс, Індія Айлі, Чарльз Денс, Крістен Холден-Рід, Сандрін Холт, Річард Цетрон, Сенні Ван Хетерен
Сюжет:
Через 12 років в стані, близькому до коматозного, Селін дізнається про існування рідної дочки Єви - гібрида вампіра і лікана. І Селін необхідно перешкодити Біоком створити суперліканів, які вб'ють їх усіх.


Тривалість: 01:28:34
Якість:
Відео:
кодек:
розмір кадру: 1280 х 536
бітрейт: 5905 кб/с

Аудіо # 1:
мова: українська
переклад: професійний дубльований
кодек: 5.1
бітрейт: 640 кб/с

Аудіо # 2:
мова: англійська
переклад: оригінал
кодек: 5.1
бітрейт: 384 кб/с

Субтитри:
мова: англійська
тип: пререндерні
формат: *.pgs
MediaInfo:
File size : 4.29 GiB
Duration : 1h 28mn
Overall bit rate : 6 936 Kbps
Encoded date : UTC 2012-04-19 08:52:56
Writing application : mkvmerge v5.5.0 ('Healer') built on Apr 7 2012 12:04:29
Writing library : libebml v1.2.2 + libmatroska v1.3.0

Video
ID : 1
Format : AVC
Format/Info : Advanced Video Codec
Format profile : [email protected]
Format settings, CABAC : Yes
Format settings, ReFrames : 16 frames
Codec ID : V_MPEG4/ISO/AVC
Duration : 1h 28mn
Bit rate : 5 905 Kbps
Width : 1 280 pixels
Height : 536 pixels
Display aspect ratio : 2.40:1
Frame rate mode : Variable
Frame rate : 23.976 fps
Color space : YUV
Chroma subsampling : 4:2:0
Bit depth : 8 bits
Scan type : Progressive
Bits/(Pixel*Frame) : 0.359
Stream size : 3.57 GiB (83%)
Writing library : core 112
Encoding settings : cabac=1 / ref=16 / deblock=1:-3:-3 / analyse=0x3:0x113 / me=umh / subme=10 / psy=1 / psy_rd=1,00:0,00 / mixed_ref=1 / me_range=64 / chroma_me=1 / trellis=2 / 8x8dct=1 / cqm=0 / deadzone=21,11 / fast_pskip=1 / chroma_qp_offset=-2 / threads=9 / sliced_threads=0 / nr=0 / decimate=1 / interlaced=0 / constrained_intra=0 / bframes=16 / b_pyramid=2 / b_adapt=2 / b_bias=0 / direct=1 / weightb=1 / open_gop=0 / weightp=2 / keyint=240 / keyint_min=23 / scenecut=40 / intra_refresh=0 / rc_lookahead=50 / rc=2pass / mbtree=1 / bitrate=5905 / ratetol=1,0 / qcomp=0,60 / qpmin=3 / qpmax=51 / qpstep=4 / cplxblur=20,0 / qblur=0,5 / ip_ratio=1,40 / aq=1:1,00
Language : English
Default : Yes
Forced : No
Color primaries : BT.709-5, BT.1361, IEC 61966-2-4, SMPTE RP177
Transfer characteristics : BT.709-5, BT.1361
Matrix coefficients : BT.709-5, BT.1361, IEC 61966-2-4 709, SMPTE RP177

Audio #1
ID : 2
Format : AC-3
Format/Info : Audio Coding 3
Mode extension : CM (complete main)
Format settings, Endianness : Big
Codec ID : A_AC3
Duration : 1h 28mn
Bit rate mode : Constant
Bit rate : 640 Kbps
Channel(s) : 6 channels
Channel positions : Front: L C R, Side: L R, LFE
Sampling rate : 48.0 KHz
Bit depth : 16 bits
Compression mode : Lossy
Stream size : 405 MiB (9%)
Language : Ukrainian
Default : Yes
Forced : No

Audio #2
ID : 3
Format : AC-3
Format/Info : Audio Coding 3
Mode extension : CM (complete main)
Format settings, Endianness : Big
Codec ID : A_AC3
Duration : 1h 28mn
Bit rate mode : Constant
Bit rate : 384 Kbps
Channel(s) : 6 channels
Channel positions : Front: L C R, Side: L R, LFE
Sampling rate : 48.0 KHz
Bit depth : 16 bits
Compression mode : Lossy
Stream size : 243 MiB (6%)
Language : English
Default : No
Forced : No

Text
ID : 4
Format : PGS
Muxing mode : zlib
Codec ID : S_HDMV/PGS
Codec ID/Info : The same subtitle format used on BDs/HD-DVDs
Language : English
Default : Yes
Forced : No
log:
[info]: frame I:956 Avg QP: 8,37 size:154578 PSNR Mean Y:53,52 U:55,67 V:55,63 Avg:54,09 Global:53,21
[info]: frame P:32856 Avg QP:11,96 size: 55199 PSNR Mean Y:50,55 U:53,04 V:52,92 Avg:51,13 Global:50,20
[info]: frame B:93605 Avg QP:13,85 size: 20951 PSNR Mean Y:48,85 U:52,26 V:52,14 Avg:49,67 Global:49,19
[info]: consecutive B-frames: 3,4% 5,1% 14,2% 31,1% 12,3% 19,6% 4,0% 5,7% 3,4% 0,6% 0,1% 0,2% 0,1% 0,1% 0,0% 0,1% 0,1%
[info]: mb I I16..4: 10,5% 58,3% 31,2%
[info]: mb P I16..4: 2,1% 19,2% 2,9% P16..4: 28,8% 24,6% 18,7% 0,0% 0,0% skip: 3,7%
[info]: mb B I16..4: 0,2% 3,0% 0,6% B16..8: 34,4% 18,6% 6,2% direct:10,5% skip:26,6% L0:47,2% L1:40,9% BI:11,9%
[info]: 8x8 transform intra:77,2% inter:45,5%
[info]: coded y,uvDC,uvAC intra: 89,0% 83,8% 69,3% inter: 37,0% 22,9% 10,0%
[info]: i16 v,h,dc,p: 50% 14% 12% 24%
[info]: i8 v,h,dc,ddl,ddr,vr,hd,vl,hu: 13% 12% 15% 8% 10% 10% 11% 10% 12%
[info]: i4 v,h,dc,ddl,ddr,vr,hd,vl,hu: 12% 10% 8% 10% 13% 12% 12% 11% 13%
[info]: i8c dc,h,v,p: 45% 25% 17% 12%
[info]: Weighted P-Frames: Y:9,3% UV:7,4%
[info]: ref P L0: 44,9% 6,3% 14,0% 6,8% 4,9% 4,4% 3,6% 2,5% 2,2% 2,1% 1,8% 1,6% 1,4% 1,3% 1,2% 0,9%
[info]: ref B L0: 68,4% 10,8% 5,5% 2,8% 2,3% 1,9% 1,8% 1,2% 1,1% 1,0% 0,8% 0,8% 0,7% 0,5% 0,2%
[info]: ref B L1: 91,3% 8,7%
[info]: SSIM Mean Y:0,9917860 (20,854db)
[info]: PSNR Mean Y:49,323 U:52,485 V:52,369 Avg:50,081 Global:49,448 kb/s:5904,56
Скріншоти:
Original vs Encode




Джерело: Власний ріп +
Особиста оцінка: 10 - без зайвих вагань рекомендую всім!


Бронзовий реліз (на рейтинг впливає 75% завантаженого)
 Трекер:    Зареєстрований   

Завантажити / скачати фільм українською



відео для новачків



 Зареєстрований:   2012-04-19 11:17
 Розмір:   17.16 GB 
 Оцінка фільму:   9.8/10 (Голосів: 42)
   
freelander 
Новенький


З нами з: 06.09.10
Востаннє: 06.11.16
Повідомлень: 1

2011-12-23 02:02  
дякую, хороша збірка.
Zeus62 
Відео Гуртом - команда HD
Відео Гуртом - команда HD


З нами з: 29.12.08
Востаннє: 16.11.16
Повідомлень: 330

2011-12-23 02:08  
будь ласка Happy
ya2009-3009 
Новенький


З нами з: 10.11.11
Востаннє: 01.02.12
Повідомлень: 10

2011-12-23 12:48  
...
DiGen 
Модератор HD та координатор Команди HD
Модератор HD та координатор Команди HD


З нами з: 12.11.09
Востаннє: 24.06.13
Повідомлень: 1452

2011-12-23 15:29  
Необіхідні виправлення:
1) актори в різних частинах мінялись, тому список не може бути одним;
2) до перших двох частин був багатоголосий закадровий;
3) звідки ДТС доріжки?

vic88888888 
Свій


З нами з: 11.11.10
Востаннє: 30.11.16
Повідомлень: 66

2011-12-23 18:44  
Майже "динозабри" вампірських саг, "Блейд" не рахується ))) Так, це вам не "сусутінки". Дякую!
Zeus62 
Відео Гуртом - команда HD
Відео Гуртом - команда HD


З нами з: 29.12.08
Востаннє: 16.11.16
Повідомлень: 330

2011-12-23 22:11  
Цитата:
3) звідки ДТС доріжки?

ДТС доріжки з Блу-рей, з якого я конвертував.

MutuLI 
Відео Гуртом - фільмокрай
Відео Гуртом - фільмокрай


З нами з: 08.03.09
Востаннє: 07.12.16
Повідомлень: 1251

2011-12-23 22:36  
Доріжки від HDClub
Zeus62 
Відео Гуртом - команда HD
Відео Гуртом - команда HD


З нами з: 29.12.08
Востаннє: 16.11.16
Повідомлень: 330

2011-12-23 22:50  
Цитата:
Доріжки від HDClub

Саме так.Саме звідти я й качав Блу-рей

DiGen 
Модератор HD та координатор Команди HD
Модератор HD та координатор Команди HD


З нами з: 12.11.09
Востаннє: 24.06.13
Повідомлень: 1452

2011-12-23 22:58  
Єдине що не розумію, то це чому під списком файлів завантаження як „Інші ...” моя трилогія в форматі 1080p toloka.to/t17862 не відображається. І відповідно навпаки.
braveboy 
Відео Гуртом - команда HD
Відео Гуртом - команда HD


З нами з: 15.06.10
Востаннє: 29.10.16
Повідомлень: 958

2011-12-23 23:21  
DiGen написано:
Єдине що не розумію, то це чому під списком файлів завантаження як „Інші ...” моя трилогія в форматі 1080p toloka.to/t17862 не відображається. І відповідно навпаки.


назви торрент файлів різні
Zeus62
Цитата:
Underworld - Trilogy

DiGen
Цитата:
Underworld.Trilogy.

Віктор 
Відео Гуртом - субтитрування
Відео Гуртом - субтитрування


З нами з: 09.01.10
Востаннє: 07.12.16
Повідомлень: 8663

2011-12-23 23:27  
igorgladunyak написано:
назви торрент файлів різні

До чого тут торрент файл? Воно відображає за оригінальною назвою в темі, а не як підписаний торрент файл - http://toloka.to/t30056 The Sorcerer\'s Apprentice (2010) [Ukr, Eng] 720p [Hurtom, HDCLUB].mkv; http://toloka.to/t18600 - Uchenik.charodeja.2010.D..Ukr_0dayTeam.avi

braveboy 
Відео Гуртом - команда HD
Відео Гуртом - команда HD


З нами з: 15.06.10
Востаннє: 29.10.16
Повідомлень: 958

2011-12-23 23:34  
w2958l написано:
До чого тут торрент файл? Воно відображає за оригінальною назвою в темі, а не як підписаний торрент файл - http://toloka.to/t30056 The Sorcerer\'s Apprentice (2010) [Ukr, Eng] 720p [Hurtom, HDCLUB].mkv; http://toloka.to/t18600 - Uchenik.charodeja.2010.D..Ukr_0dayTeam.avi

То чому не відоражає? Назви в темах то однакові.

Віктор 
Відео Гуртом - субтитрування
Відео Гуртом - субтитрування


З нами з: 09.01.10
Востаннє: 07.12.16
Повідомлень: 8663

2011-12-23 23:42  
igorgladunyak написано:
То чому не відоражає? Назви в темах то однакові.

Така ситуація в усіх ...логіях, з однаковими назвами, це треба питати адміна.

KHARKIV 
Новенький


З нами з: 09.01.12
Востаннє: 15.11.16
Повідомлень: 7

2012-02-18 11:38  
дякую за збірку =)
BASTERD-94 
VIP


З нами з: 27.11.10
Востаннє: 08.12.16
Повідомлень: 363

2012-04-18 02:19  
Zeus62, є театральна версія 1-ої частини.
Ти не плануєш її замінити у своєму релізі?

Zeus62 
Відео Гуртом - команда HD
Відео Гуртом - команда HD


З нами з: 29.12.08
Востаннє: 16.11.16
Повідомлень: 330

2012-04-19 11:30  
Цитата:
є театральна версія 1-ої частини.
Ти не плануєш її замінити у своєму релізі?

А в чому її відмінність від режисерської версії?Крім тривалості фільму.

don pedro 
Попереджень: 1
Попереджень: 1 


З нами з: 29.06.11
Востаннє: 08.12.16
Повідомлень: 8761

2014-08-24 13:11  
Як Кейт Бекінсейл займається йогою:

https://www.youtube.com/watch?v=4cmVAwdHMlE

А це та сама попка у якості:

https://www.youtube.com/watch?v=eCS_IOkRGu0

FullofMetal 
Частий відвідувач


З нами з: 22.08.09
Востаннє: 07.12.16
Повідомлень: 27

2014-10-03 20:30  
Вечір добрий. Шановне панство станьте хтось ще на роздачу, бо взагалі нічого не вантажить. Дякую
boroznaya 
VIP


З нами з: 02.11.12
Востаннє: 07.12.16
Повідомлень: 1876

2015-01-28 22:53  
Спасибі за відмінну квадрологію, люблю такі фільми. Це вже пройдений етап, коли у фільмах добро бореться зі злом, а тут одне зло з іншим суперечить, оце надає запалу. Взагалі, мені подабаються фільми, схожого жанру, от і ці забираю в колекцію!
don pedro 
Попереджень: 1
Попереджень: 1 


З нами з: 29.06.11
Востаннє: 08.12.16
Повідомлень: 8761

2015-05-16 01:44  
Блага вість: скоріше всього п'ята частина з'явиться у кінці 2016-го, або на у січні 2017 р. з Кейт Бекінсейл у ролі Селени. Обговорюються також два фільми спін-офи та серіал на основі цієї історії:

http://screenrant.com/underworld-5-kate-beckinsale/

Ua.bos_01 
VIP


З нами з: 22.06.15
Востаннє: 06.12.16
Повідомлень: 1291

2015-08-18 11:30  
Ідея фільм непогана, але є занадто багато ляпів, які бісять, хоча не варто забувати, що це просто кіно... Переглянути можна, але лише один раз, більше мені не цікаво буде його дивитись.
don pedro 
Попереджень: 1
Попереджень: 1 


З нами з: 29.06.11
Востаннє: 08.12.16
Повідомлень: 8761

2015-10-20 14:01  
БЛАГА ВІСТЬ:
Screen rant повідомляє: офіційно оголошено про початок зйомок фільму "Інший світ: нове покоління". Схоже, це нове перезавантаження усієї серії. У кінотеатрах він буде з 21 жовтня 2016 р.

Режисером буде якась Анна Фоерстер, яка до цього була режисером окремих епізодів якихось серіалів та оператором у таких лохбастерах як "Пісязавтра", "День незалежності" і "Падіння Білого дому". Може, щось там і навчилась. Сценарій пише Корі Ґудмен, відомий як сценарист для таких фільмів як "Священник" та "останній мисливець на відьом". Не найкращий вибір для створення продовження чогось такого потужного, як "Інший світ", але надія завжди є.

Кейт Бекінсейл повертається, але є чутки, що це буде її остання участь у цій серії. Схоже, планується повне перезавантаження "Іншого світу", тож "старим тут не місце". Дуже шкода: Селена - одна з найважливіших причин дивитись ці фільми.

У фільм повертається Девід, соратник Селени (Theo James, "Чотири" з "The Divergent"), а також Чарльз Денс (старший Ланістер з "Гри престолів") як лідер вампірського підпілля. Загалом, буде багато нових облич.

Дуже чекаю.

Ua.bos_01 
VIP


З нами з: 22.06.15
Востаннє: 06.12.16
Повідомлень: 1291

2015-10-22 19:45  
Цитата:
лохбастерах
зацінив! :-)

Загалом цікаво звісно буде побачити, що з того вийде.

TatkaFursa 
Новенький


З нами з: 08.10.14
Востаннє: 07.12.16
Повідомлень: 8

2016-07-19 00:13  
Шановне панство, підкажіть у чому може бути проблема, аудіо до перших двох фільмів із серії не відтворюється, в релізі зазначено дві аудіо доріжки до першої частини але в програвачі тільки одна єдина показана і та ніякого звуку не дає =(
don pedro 
Попереджень: 1
Попереджень: 1 


З нами з: 29.06.11
Востаннє: 08.12.16
Повідомлень: 8761

2016-07-19 00:54  
TatkaFursa
Можливо, треба інший програвач.

jaroslove 
Новенький


З нами з: 02.09.11
Востаннє: 06.12.16
Повідомлень: 11

2016-11-24 21:37  
Ніби вчора дивився перші дві частини в гуртожитку (будучи студентом). Недавно побачив трейлер до 5-ї частини і вирішив переглянути все з початку. Загалом чудово, але в першій частині періодично зникає український дубляж (аудіодоріжка, використовую КМП плеєр), звісно це не біда, з "інгіш" дяка Богу я товаришую. Автору велике дякую за роботу та реліз!
Ваш часовий пояс: GMT + 2 Години

Нова тема   Відповісти