Завантажити та скачати торренти українською


Пункт призначення 5 / Final Destination 5 (2011) 720p Ukr/Eng | Sub Ukr/Eng

Нові коментарі

Нова тема   Відповісти
Автор Повідомлення
Anonymous 







2011-12-22 12:23  
Пункт призначення 5 / Final Destination 5 (2011) 720p Ukr/Eng | Sub Ukr/Eng
Пункт призначення 5 / Final Destination 5 (2011) 720p Ukr/Eng | Sub Ukr/Eng

Жанр: жахи, трилер
Країна: США



Кіностудія / кінокомпанія: Jellystone Films, New Line Cinema, Practical Pictures; мейджор – Warner Bros
Режисер: Стівен Квейл
Актори: Ніколас Д’Аґосто, Емма Белл, Майлс Фішер, Еллен Ро, Жаклін МакІннес Вуд

Сюжет:
Сюжет обертається навколо головного героя, який передчуває нещасний випадок, завдяки чому його друзі і деякі інші люди рятуються при падінні висячого моста. Проте незабаром виживші розуміють, що немає способів обдурити саму Смерть.


Тривалість: 01:31:50
Якість: 720p ріп з Blu-ray [NiP]
Відео:
кодек:
розмір кадру: 1280x534
бітрейт: 5001 кб/с

Аудіо 1:
мова: українська
переклад: професійний дубльований
кодек: 5.1
бітрейт: 640 кб/с

Аудіо 2:
мова: англійська
переклад: оригінал
кодек: 5.1
бітрейт: 1536 кб/с

Субтитри 1:
мова: українська
тип: програмні (м'які)
формат: *.srt

Субтитри 2:
мова: англійська
тип: програмні (м'які)
формат: *.srt

Джерело озвучення:
/ Ліцензія

Додатково: Збережено оригінальні чаптери як на Blu-ray.
MediaInfo

Format : Matroska
File size : 4.59 GiB
Duration : 1h 31mn
Overall bit rate : 7 156 Kbps
Movie name : Final Destination 5 (2011) - Release for HDCLUB by HANSMER
Encoded date : UTC 2011-12-22 10:14:56
Writing application : mkvmerge v2.4.2 ('Oh My God') built on Jan 18 2009 17:30:28
Writing library : libebml v0.7.7 + libmatroska v0.8.1
Cover : Yes / Yes / Yes
Video #1
ID : 1
Format : AVC
Format/Info : Advanced Video Codec
Format profile : [email protected]
Format settings, CABAC : Yes
Format settings, ReFrames : 12 frames
Muxing mode : Container [email protected]
Codec ID : V_MPEG4/ISO/AVC
Duration : 1h 31mn
Bit rate : 4 863 Kbps
Nominal bit rate : 5 001 Kbps
Width : 1 280 pixels
Height : 534 pixels
Display aspect ratio : 2.35:1
Frame rate : 23.976 fps
Resolution : 24 bits
Colorimetry : 4:2:0
Scan type : Progressive
Bits/(Pixel*Frame) : 0.297
Stream size : 3.12 GiB (68%)
Title : Release for HDCLUB by HANSMER
Writing library : core 120 r2120 0c7dab9
Encoding settings : cabac=1 / ref=12 / deblock=1:-3:-3 / analyse=0x3:0x113 / me=umh / subme=11 / psy=1 / psy_rd=1.00:0.00 / mixed_ref=1 / me_range=48 / chroma_me=1 / trellis=2 / 8x8dct=1 / cqm=0 / deadzone=21,11 / fast_pskip=0 / chroma_qp_offset=-2 / threads=12 / sliced_threads=0 / nr=0 / decimate=0 / interlaced=0 / bluray_compat=0 / constrained_intra=0 / bframes=8 / b_pyramid=2 / b_adapt=2 / b_bias=0 / direct=3 / weightb=1 / open_gop=0 / weightp=2 / keyint=250 / keyint_min=24 / scenecut=40 / intra_refresh=0 / rc_lookahead=60 / rc=2pass / mbtree=0 / bitrate=5001 / ratetol=1.0 / qcomp=0.70 / qpmin=0 / qpmax=69 / qpstep=4 / cplxblur=20.0 / qblur=0.5 / vbv_maxrate=50000 / vbv_bufsize=62500 / nal_hrd=none / ip_ratio=1.30 / pb_ratio=1.20 / aq=2:0.90
Language : English
matrix_coefficients : BT.709-5, BT.1361, IEC 61966-2-4 709, SMPTE RP177
Audio #2
ID : 2
Format : AC-3
Format/Info : Audio Coding 3
Codec ID : A_AC3
Duration : 1h 31mn
Bit rate mode : Constant
Bit rate : 640 Kbps
Channel(s) : 6 channels
Channel positions : Front: L C R, Surround: L R, LFE
Sampling rate : 48.0 KHz
Stream size : 420 MiB (9%)
Title : 5.1 640 kbps DUB, Blu-ray CEE
Language : Ukrainian
Audio #3
ID : 3
Format :
Format/Info : Digital Theater Systems
Codec ID : A_DTS
Duration : 1h 31mn
Bit rate mode : Constant
Bit rate : 1 510 Kbps
Channel(s) : 6 channels
Channel positions : Front: L C R, Surround: L R, LFE
Sampling rate : 48.0 KHz
Resolution : 24 bits
Video delay : 11ms
Stream size : 992 MiB (21%)
Title : 5.1 1536 kbps
Language : English
Text #4
ID : 4
Format : UTF-8
Codec ID : S_TEXT/UTF8
Codec ID/Info : UTF-8 Plain Text
Language : Ukrainian
Text #5
ID : 5
Format : UTF-8
Codec ID : S_TEXT/UTF8
Codec ID/Info : UTF-8 Plain Text
Language : English
Скріншоти:


Особиста оцінка: 8/10
Джерело:


 Трекер:    Зареєстрований   

Завантажити / скачати фільм українською



відео для новачків



 Зареєстрований:   2011-12-22 12:23
 Розмір:   4.59 GB 
 Оцінка фільму:   8.1/10 (Голосів: 11)
   
Інші релізи
praysu 
Забанено
Забанено


З нами з: 22.05.08
Востаннє: 13.11.13
Повідомлень: 119

2012-01-06 21:22  
3/10

Кінець тупий фільм-*цензура*.
Коротче дуже поганий.

KINOhronik 
Новенький


З нами з: 21.01.10
Востаннє: 25.11.16
Повідомлень: 17

2012-02-05 20:18  
praysu
Дай но вгадаю, і всі вони померри((

Virake 
Localize Team
Localize Team


З нами з: 07.07.09
Востаннє: 08.12.16
Повідомлень: 4064

2012-02-06 21:23  
та непоганий фільм. на 7 тягне. в рази кращий за попередній.
taras00012 
Свій


З нами з: 24.04.12
Востаннє: 20.10.13
Повідомлень: 53

2012-07-26 23:46  
Кінцівку взагалі не продумали. Спочатку той лисий чоловік з моргу каже що вже бачив таких "щасливчиків", хоча судячи по кінцівці виходить що все відбувалося ще до першого такого випадку.
Virake 
Localize Team
Localize Team


З нами з: 07.07.09
Востаннє: 08.12.16
Повідомлень: 4064

2012-07-31 19:38  
taras00012 написано:
судячи по кінцівці виходить що все відбувалося ще до першого такого випадку.
з чого ви це взяли?
bot 
робот


З нами з: 30.09.07
Востаннє: 26.05.05
Повідомлень: 16031

2012-09-21 14:21  
Тему перенесено з Фільми в HD до форуму Неоформлене відео


urij546724

Ваш часовий пояс: GMT + 2 Години

Нова тема   Відповісти