Завантажити та скачати торренти українською


Дике Поле - Довгі пісні передстепової України. Проект "Моя Україна. Берви" (2010) [Flac] | Folk

Нові коментарі

Нова тема   Відповісти
Останній раз роздавалося Олег Студент (2016-12-07)
Автор Повідомлення
gosha.samovar 
VIP


З нами з: 08.09.10
Востаннє: 06.12.16
Повідомлень: 400

2011-12-21 23:26  
Дике Поле - Довгі пісні передстепової України. Проект "Моя Україна. Берви" (2010) [FLAC] | Folk

Дике Поле - Довгі пісні передстепової України. Проект "Моя Україна. Берви" (2010) [Flac] | Folk


Стиль: Ethno Folk
Країна, місто: Україна, Кіровоград
Видавець: "Арт Екзистенція", "Арт Велес"
Пісні:
    01 На жовтісініькім пісочку 05:06
    02 Вітер повіва 04:24
    03 Та бодай ти, степовая могила, запала 04:18
    04 Ой у Ростові та ще й в городі 05:08
    05 Зволнувалася та на морі погода 06:02
    06 А славний город Лебедин 03:53
    07 Ой то з-за гори та ще й з-за Лиману 03:31
    08 Ой од саду та й до моря битая дорога 04:26
    09 Ой сон, мати, ой сон, мати 03:01
    10 Ой сади ж мої, сади 04:03
    11 Ой упав сніжок та й на бережок 03:47
    12 Ой піду я в ліс по дрова 06:02
    13 Ходив-блудив привдалий молодчик 02:57
    14 Ой сербіне, сербіночку 09:20
    15 Ай сонце сходе, а я журюся 04:25
EAC log
Exact Audio Copy V1.0 beta 3 from 29. August 2011

Отчёт EAC об извлечении, выполненном 21. декабря 2011, 2:29

Дике Поле / Довгі пісні передстепової України

Дисковод: PHILIPS SPD2519T Adapter: 2 ID: 0

Режим чтения : Достоверность
Использование точного потока : Да
Отключение кэша аудио : Да
Использование указателей C2 : Нет

Коррекция смещения при чтении : 6
Способность читать области Lead-in и Lead-out : Нет
Заполнение пропущенных сэмплов тишиной : Да
Удаление блоков с тишиной в начале и конце : Нет
При вычислениях CRC использовались нулевые сэмплы : Да
Интерфейс : Встроенный Win32-интерфейс для Win NT/2000

Выходной формат : Пользовательский кодировщик
Выбранный битрейт : 1024 kBit/s
Качество : Высокий
Добавление ID3-тега : Нет
Утилита сжатия : D:\soft_2\EAC\Exact Audio Copy\Flac\flac.exe
Дополнительные параметры : -V -8 -T "Date=%year%" -T "Genre=%genre%" %source%

TOC извлечённого CD

Трек | Старт | Длительность | Начальный сектор | Конечный сектор
---------------------------------------------------------------------
1 | 0:00.00 | 5:08.33 | 0 | 23132
2 | 5:08.33 | 4:26.31 | 23133 | 43113
3 | 9:34.64 | 4:20.48 | 43114 | 62661
4 | 13:55.37 | 5:10.41 | 62662 | 85952
5 | 19:06.03 | 6:04.18 | 85953 | 113270
6 | 25:10.21 | 3:55.09 | 113271 | 130904
7 | 29:05.30 | 3:33.51 | 130905 | 146930
8 | 32:39.06 | 4:28.72 | 146931 | 167102
9 | 37:08.03 | 3:03.32 | 167103 | 180859
10 | 40:11.35 | 4:05.46 | 180860 | 199280
11 | 44:17.06 | 3:49.48 | 199281 | 216503
12 | 48:06.54 | 6:04.30 | 216504 | 243833
13 | 54:11.09 | 2:59.57 | 243834 | 257315
14 | 57:10.66 | 9:22.15 | 257316 | 299480
15 | 66:33.06 | 4:25.26 | 299481 | 319381

Характеристики диапазона извлечения и сообщения об ошибках

Выбранный диапазон

Имя файла E:\Музіка!\from EAC\Дике Поле - Довгі пісні передстепової України.wav

Пиковый уровень 89.3 %
Скорость извлечения 8.1 X
Качество диапазона 100.0 %
CRC теста 990E397B
CRC копии 990E397B
Копирование... OK

Ошибок не произошло

Конец отчёта

==== Контрольная сумма отчёта 13CAA8A103A4B74C9AB85CD48D983BAB2AA0B2030AE868822DF0C093904F5845 ====
Тривалість: 01:10:30
Мова: українська
Аудіо-кодек: FLAC
Бітрейт: 694 кб/с
Джерело: власний ріп власного CD
Додаткова інформація
ДИКЕ ПОЛЕ (м. Кіровоград). Фольклорний ансамбль, народжений 1999 року в м. Кіровоград, Центральна Україна. Батьками гурту є етномузикологи Наталя та Олександр Терещенки. "Дике поле" займається вивченням традиційної манери та техніки співу, організовує фольклорні експедиції (спілкування з носіями народномузичної традиції - мешканцями українських сіл Кіровоградської області, запис музичних творів на магнітну стрічку). Кредо ансамблю - відношення до фольклору як до розвиненої самобутньої багатовікової культури, неприпустимість жодних обробок, "покращень" фольклорного першоджерела задля досягнення зовнішніх сценічних ефектів, збереження неповторного колориту місцевої традиції, не механічне копіювання, а органічне живе засвоєння традиції, своєрідна спроба її наслідування. Досліджувана територія - передстепові та степові землі Правобережної України між Дніпром та Синюхою (на польських картах ХVII ст. DZIKIE POLIE), Східне Поділля. Повний склад ансамблю понад 20 осіб віком від 13 до 45 років, серед них - етномузикознавці, викладачі та студенти вищих і середніх музичних навчальних закладів, психолог, художник, школярі. Репертуар - уся жанрова палітра регіону: обрядові та побутові пісні, ігри, хороводи, танці. "Дике поле" - це одночасно культурно-мистецьке об'єднання, науково-дослідна лабораторія, творча майстерня, неформальний навчальний заклад, а також велике коло добрих друзів.
Якщо Ви справді бажаєте підтримати українське - після прослуховування, якщо музика вам сподобалась, придбайте ліцензійний диск. Підтримаймо вітчизняних виконавців!


Срібний реліз (на рейтинг впливає 50% завантаженого)
 Трекер:    Зареєстрований   

Завантажити / скачати українську музику



відео для новачків



 Зареєстрований:   2011-12-21 23:26
 Розмір:   362 MB 
 Оцінка музики:   9.9/10 (Голосів: 14)
   
Lev 
VIP


З нами з: 14.10.09
Востаннє: 05.12.16
Повідомлень: 1819

2012-01-03 01:44  
респект релізеру, давно хотів послухати цей диск в якості
gosha.samovar 
VIP


З нами з: 08.09.10
Востаннє: 06.12.16
Повідомлень: 400

2012-01-03 09:42  
Дякую за відгук. Слухайте пісні мого рідного краю.
Ваш часовий пояс: GMT + 2 Години

Нова тема   Відповісти