Завантажити та скачати торренти українською


Патріот [Розширена версія] / The Patriot [Extended Cut] (2000) 1080p Ukr/Eng | Sub Eng

Нові коментарі

Нова тема   Відповісти
Автор Повідомлення
leroykendall 
Модератор HD


З нами з: 03.01.11
Востаннє: 20.11.16
Повідомлень: 749

2011-12-19 22:52  
Патріот [Розширена версія] / The Patriot [Extended Cut] (2000) 1080p Ukr/Eng | Sub Eng

Патріот [Розширена версія] / The Patriot [Extended Cut] (2000) 1080p Ukr/Eng | Sub Eng

Some things are worth fighting for.


Жанр: бойовик, драма, військовий
Країна: США, Німеччина





Кіностудія / кінокомпанія: Columbia Pictures Corporation | Centropolis Entertainment | Mutual Film Company | Global Entertainment Productions GmbH & Company Medien KG
Режисер: Роланд Еммеріх (Roland Emmerich)
Актори: Мел Ґібсон (Mel Gibson), Гіт Леджер (Heath Ledger), Джоелі Річардсон (Joely Richardson), Джейсон Айзекс (Jason Isaacs), Кріс Купер (Chris Cooper), Чекі Каріо (Tchéky Karyo), Рене Обержонуа (Rene Auberjonois), Ліза Бреннер (Lisa Brenner), Том Вілкінсон (Tom Wilkinson), Донал Балка (Donal Logue)

Сюжет:
Коли над країною спалахнуло смертоносне полум'я страшної війни за незалежність США, прославлений ветеран і батько семи дітей Бенджамін Мартін залишився збоку. Але холоднокровне вбивство його сина відразу змінює все його життя.
Спрага помсти перетворила військову науку на жорстоку бійню, а мирного плантатора - в безжалісного командира найнебезпечнішого загону повстанців.
Номінації


Оскар, 2001 рік
Номінації (3):
Найкраща робота оператора
Найкращий звук
Найкращий оригінальний саундтрек


Премія каналу «MTV», 2001 рік
Номінації (1):
Найкраща чоловіча роль (Мел Гібсон)
Тривалість: 02:55:06
Якість:
Відео:
кодек:
розмір кадру: 1920 x 800
бітрейт: 9762 кб/с

Аудіо # 1:
мова: українська
переклад: багатоголосий закадровий
кодек: 5.1
бітрейт: 448 кб/с

Аудіо # 2:
мова: англійська
переклад: оригінал
кодек: 5.1
бітрейт: 1536 кб/с

Джерело озвучення:


Субтитри (до моментів без перекладу):
мова: українська
тип: програмні (м'які)
формат: *.srt

Субтитри:
мова: англійська
тип: програмні (м'які)
формат: *.ass
MediaInfo
General
Complete name : The Patriot [Extended Cut] (2000) [Ukr, Eng] 1080p [Hurtom, HDCLUB].mkv
Format : Matroska
File size : 14.6 GiB
Duration : 2h 55mn
Overall bit rate : 12.0 Mbps
Movie name : The Patriot [Extended Cut] (2000) [Ukr, Eng] 1080p [Hurtom, HDCLUB]
Encoded date : UTC 2011-12-18 22:59:45
Writing application : mkvmerge v4.9.1 ('Ich will') зібрано Jul 11 2011 23:53:15
Writing library : libebml v1.2.1 + libmatroska v1.1.1
Cover : Yes / Yes / Yes / Yes / Yes

Video
ID : 1
Format : AVC
Format/Info : Advanced Video Codec
Format profile : [email protected]
Format settings, CABAC : Yes
Format settings, ReFrames : 5 frames
Muxing mode : Container [email protected]
Codec ID : V_MPEG4/ISO/AVC
Duration : 2h 54mn
Bit rate : 9 762 Kbps
Nominal bit rate : 9 999 Kbps
Width : 1 920 pixels
Height : 800 pixels
Display aspect ratio : 2.40:1
Frame rate : 23.976 fps
Resolution : 24 bits
Colorimetry : 4:2:0
Scan type : Progressive
Bits/(Pixel*Frame) : 0.265
Stream size : 11.9 GiB (82%)
Title : The Patriot [Extended Cut] (2000) 1080p [Hurtom, HDCLUB]
Writing library : core 118 r2085 8a62835
Encoding settings : cabac=1 / ref=5 / deblock=1:-2:-2 / analyse=0x3:0x133 / me=umh / subme=9 / psy=1 / psy_rd=1.00:0.00 / mixed_ref=1 / me_range=24 / chroma_me=1 / trellis=2 / 8x8dct=1 / cqm=0 / deadzone=21,11 / fast_pskip=1 / chroma_qp_offset=-2 / threads=12 / sliced_threads=0 / nr=0 / decimate=1 / interlaced=0 / bluray_compat=0 / constrained_intra=0 / bframes=7 / b_pyramid=2 / b_adapt=2 / b_bias=0 / direct=2 / weightb=1 / open_gop=0 / weightp=2 / keyint=250 / keyint_min=23 / scenecut=40 / intra_refresh=0 / rc_lookahead=40 / rc=2pass / mbtree=1 / bitrate=9999 / ratetol=1.0 / qcomp=0.60 / qpmin=0 / qpmax=69 / qpstep=4 / cplxblur=20.0 / qblur=0.5 / ip_ratio=1.40 / aq=1:1.00

Audio #1
ID : 2
Format : AC-3
Format/Info : Audio Coding 3
Codec ID : A_AC3
Duration : 2h 55mn
Bit rate mode : Constant
Bit rate : 448 Kbps
Channel(s) : 6 channels
Channel positions : Front: L C R, Surround: L R, LFE
Sampling rate : 48.0 KHz
Stream size : 561 MiB (4%)
Title : UKR - Переклад і озвучення Інтер
Language : Ukrainian

Audio #2
ID : 3
Format :
Format/Info : Digital Theater Systems
Codec ID : A_DTS
Duration : 2h 55mn
Bit rate mode : Constant
Bit rate : 1 510 Kbps
Channel(s) : 6 channels
Channel positions : Front: L C R, Surround: L R, LFE
Sampling rate : 48.0 KHz
Resolution : 24 bits
Stream size : 1.85 GiB (13%)
Title : ENG

Text #1
ID : 4
Format : UTF-8
Codec ID : S_TEXT/UTF8
Codec ID/Info : UTF-8 Plain Text
Title : UKR forced - До моментів без перекладу
Language : Ukrainian

Text #2
ID : 5
Format : ASS
Codec ID : S_TEXT/ASS
Codec ID/Info : Advanced Sub Station Alpha
Title : ENG
Скріншоти:







Подяки
Пану Воїн'у за українізацію постера
Пану Romario_O за українську доріжку та еталонний реліз: Патріот [Розширена версія] / The Patriot [Extended Cut] (2000) Ukr/Eng | Sub Eng


Увага! Є моменти без перекладу.

Джерело: &
Особиста оцінка: 10 - без зайвих вагань рекомендую всім!


Срібний реліз (на рейтинг впливає 50% завантаженого)
 Трекер:    Зареєстрований   

Завантажити / скачати фільм українською



відео для новачків



 Зареєстрований:   2011-12-19 22:52
 Розмір:   14.63 GB 
 Оцінка фільму:   10/10 (Голосів: 26)
   
Інші релізи
   Патріот / The Patriot (2000) 720p Ukr/Eng | Sub Eng zed  2 / 0   8.4 GB   2015-03-30 21:00 
   Патріот / The Patriot (2000) patriot2305  11 / 0   2.19 GB   2014-11-03 11:30 
   Патріот [Розширена версія] / The Patriot [Extended Cut] (2000) Ukr/Eng | Sub Eng Romario_O  21 / 2   2.92 GB   2009-09-14 19:23 
Sensetivity 
VIP


З нами з: 03.05.11
Востаннє: 03.01.13
Повідомлень: 2019

2012-01-05 00:00  
був би вдячний за 720р версію.
leroykendall 
Модератор HD


З нами з: 03.01.11
Востаннє: 20.11.16
Повідомлень: 749

2012-01-05 00:09  
Sensetivity
Може хто зробить, але я навряд чи.

igor911 
Відео Гуртом
Відео Гуртом


З нами з: 18.01.08
Востаннє: 08.12.16
Повідомлень: 5193

2015-03-30 23:31  
720p (театралка)
Ваш часовий пояс: GMT + 2 Години

Нова тема   Відповісти