Завантажити та скачати торренти українською


Дев'ятий округ / District 9 (2009) 720p-mini

Нові коментарі

Нова тема   Відповісти
Автор Повідомлення
Drool 
VIP


З нами з: 17.04.10
Востаннє: 05.12.16
Повідомлень: 1262

2011-12-18 21:17  
Дев'ятий округ / District 9 (2009) 720p-mini


Жанр: фантастика, бойовик, трилер, драма
Країна: США



Кіностудія / кінокомпанія: Key Creatives, QED International, WingNut Films, Wintergreen Productions
Режисер: Ніл Бломкамп
Актори: Шарлто Коплі, Джейсон Коуп, Наталі Болтт, Сільвен Страйк, Елізабет Мкандаві, Джон Самнер, Уільям Аллен Янґ, Ґреґ Мелвілл-Сміт, Нік Блейк, Морена Буса Сесатса

Сюжет:
Понад 20 років тому інопланетяни встановили перший контакт із Землею. Люди були готові до всього - від ворожого вторгнення до неймовірного технологічного прориву. Ні того, ні іншого не сталося. Прибульці виявилися біженцями зі своєї власної планети, і поки світова спільнота вирішувала, що з ними робити далі, для них був організований тимчасовий табір в південноафриканському дев'ятому окрузі.


Тривалість: 01:52:15
Якість: 720p (джерело Blu-ray EUR 1080p)
Відео:
кодек:
розмір кадру: 1280x694
бітрейт: 2276 кб/с

Аудіо:
мова: українська
переклад: професійний дубльований
кодек: 5.1
бітрейт: 448 кб/с (перетиснуто з 640 кб/с)

Джерело озвучення:


Субтитри:
мова: українська
тип: програмні (м'які)
формат: *.srt
MediaInfo
General
Unique ID : 220867988159314677604036296064587141061 (0xA629A0912DE0C7499249C93153860FC5)
Complete name : /mnt/disk_d/Video/Films/District.9.2009.D.Ukr.720p.UAGet.mkv
Format : Matroska
File size : 2.13 GiB
Duration : 1h 52mn
Overall bit rate : 2 722 Kbps
Movie name : Дев'ятий округ / District 9 (2009) 720p | UAGet
Encoded date : UTC 2011-12-09 07:43:03
Writing application : mkvmerge v3.4.0 ('Rapunzel') збірка від May 15 2010 09:38:20
Writing library : libebml v0.8.0 + libmatroska v0.9.0

Video
ID : 1
Format : AVC
Format/Info : Advanced Video Codec
Format profile : [email protected]
Format settings, CABAC : Yes
Format settings, ReFrames : 7 frames
Codec ID : V_MPEG4/ISO/AVC
Duration : 1h 52mn
Bit rate : 2 276 Kbps
Width : 1 280 pixels
Height : 694 pixels
Display aspect ratio : 16:9
Frame rate mode : Variable
Frame rate : 23.976 fps
Color space : YUV
Chroma subsampling : 4:2:0
Bit depth : 8 bits
Scan type : Progressive
Bits/(Pixel*Frame) : 0.107
Stream size : 1.74 GiB (82%)
Title : District 9 (2009) 720p | UAGet
Writing library : core 112
Encoding settings : cabac=1 / ref=8 / deblock=1:0:0 / analyse=0x3:0 / me=umh / subme=9 / psy=1 / psy_rd=1.10:0.00 / mixed_ref=1 / me_range=24 / chroma_me=1 / trellis=2 / 8x8dct=1 / cqm=0 / deadzone=21,11 / fast_pskip=1 / chroma_qp_offset=-2 / threads=3 / sliced_threads=0 / nr=0 / decimate=0 / interlaced=0 / constrained_intra=0 / bframes=6 / b_pyramid=1 / b_adapt=2 / b_bias=0 / direct=3 / weightb=1 / open_gop=0 / weightp=2 / keyint=240 / keyint_min=23 / scenecut=40 / intra_refresh=0 / rc_lookahead=40 / rc=2pass / mbtree=1 / bitrate=2276 / ratetol=1.0 / qcomp=0.60 / qpmin=3 / qpmax=51 / qpstep=4 / cplxblur=20.0 / qblur=0.5 / ip_ratio=1.40 / aq=1:1.10
Color primaries : BT.709-5, BT.1361, IEC 61966-2-4, SMPTE RP177
Transfer characteristics : BT.709-5, BT.1361
Matrix coefficients : BT.709-5, BT.1361, IEC 61966-2-4 709, SMPTE RP177

Audio
ID : 2
Format : AC-3
Format/Info : Audio Coding 3
Mode extension : CM (complete main)
Codec ID : A_AC3
Duration : 1h 52mn
Bit rate mode : Constant
Bit rate : 448 Kbps
Channel(s) : 6 channels
Channel positions : Front: L C R, Side: L R, LFE
Sampling rate : 48.0 KHz
Bit depth : 16 bits
Compression mode : Lossy
Stream size : 360 MiB (16%)
Title : Ukrainian DUB
Language : Ukrainian

Text
ID : 3
Format : UTF-8
Codec ID : S_TEXT/UTF8
Codec ID/Info : UTF-8 Plain Text
Title : Ukrainian
Language : Ukrainian
Скріншоти




Джерело: власний ріп
Особиста оцінка: 9 - давно не бачив настільки якісне кіно
Реліз групи:


 Трекер:    Зареєстрований   

Завантажити / скачати фільм українською



відео для новачків



 Зареєстрований:   2011-12-18 21:17
 Розмір:   2.13 GB 
 Оцінка фільму:   9.5/10 (Голосів: 20)
   
Віктор 
Відео Гуртом - субтитрування
Відео Гуртом - субтитрування


З нами з: 09.01.10
Востаннє: 05.12.16
Повідомлень: 8663

2011-12-18 21:25  
Drool написано:
Джерело: власний ріп

З чого робили - 720/1080p, ремукс, блюрей, вкажіть.

Звук точно з бд? На двд так само 448 кб/с. Якщо з бд допишіть, що перетиснуто з 640 кб/с.

Drool 
VIP


З нами з: 17.04.10
Востаннє: 05.12.16
Повідомлень: 1262

2011-12-18 21:43  
w2958l написано:

З чого робили - 720/1080p, ремукс, блюрей, вкажіть.

Звук точно з бд? На двд так само 448 кб/с. Якщо з бд допишіть, що перетиснуто з 640 кб/с.

DONE

Додано через 5 хвилин 29 секунд:

Також виготовив AVC.
MediaInfo
General
Unique ID : 194629063649038867064730054866481598885 (0x926C31B551EA2E8A9DC82B19160E51A5)
Complete name : /mnt/disk_d/Temp/ISO/District.9.2009.D.Ukr.AVC.UAGet.mkv
Format : Matroska
File size : 1.53 GiB
Duration : 1h 52mn
Overall bit rate : 1 948 Kbps
Movie name : Дев'ятий округ / District 9 (2009) AVC | UAGet
Encoded date : UTC 2011-12-09 07:32:03
Writing application : mkvmerge v3.4.0 ('Rapunzel') збірка від May 15 2010 09:38:20
Writing library : libebml v0.8.0 + libmatroska v0.9.0

Video
ID : 1
Format : AVC
Format/Info : Advanced Video Codec
Format profile : [email protected]
Format settings, CABAC : Yes
Format settings, ReFrames : 7 frames
Codec ID : V_MPEG4/ISO/AVC
Duration : 1h 52mn
Bit rate : 1 500 Kbps
Width : 1 024 pixels
Height : 554 pixels
Display aspect ratio : 16:9
Frame rate mode : Variable
Frame rate : 23.976 fps
Color space : YUV
Chroma subsampling : 4:2:0
Bit depth : 8 bits
Scan type : Progressive
Bits/(Pixel*Frame) : 0.110
Stream size : 1.15 GiB (75%)
Title : District 9 (2009) AVC | UAGet
Writing library : core 112
Encoding settings : cabac=1 / ref=8 / deblock=1:0:0 / analyse=0x3:0 / me=umh / subme=9 / psy=1 / psy_rd=1.10:0.00 / mixed_ref=1 / me_range=24 / chroma_me=1 / trellis=2 / 8x8dct=1 / cqm=0 / deadzone=21,11 / fast_pskip=1 / chroma_qp_offset=-2 / threads=3 / sliced_threads=0 / nr=0 / decimate=0 / interlaced=0 / constrained_intra=0 / bframes=6 / b_pyramid=1 / b_adapt=2 / b_bias=0 / direct=3 / weightb=1 / open_gop=0 / weightp=2 / keyint=240 / keyint_min=23 / scenecut=40 / intra_refresh=0 / rc_lookahead=40 / rc=2pass / mbtree=1 / bitrate=1500 / ratetol=1.0 / qcomp=0.60 / qpmin=3 / qpmax=51 / qpstep=4 / cplxblur=20.0 / qblur=0.5 / ip_ratio=1.40 / aq=1:1.10
Color primaries : BT.709-5, BT.1361, IEC 61966-2-4, SMPTE RP177
Transfer characteristics : BT.709-5, BT.1361
Matrix coefficients : BT.709-5, BT.1361, IEC 61966-2-4 709, SMPTE RP177

Audio
ID : 2
Format : AC-3
Format/Info : Audio Coding 3
Mode extension : CM (complete main)
Codec ID : A_AC3
Duration : 1h 52mn
Bit rate mode : Constant
Bit rate : 448 Kbps
Channel(s) : 6 channels
Channel positions : Front: L C R, Side: L R, LFE
Sampling rate : 48.0 KHz
Bit depth : 16 bits
Compression mode : Lossy
Stream size : 360 MiB (23%)
Title : Ukrainian DUB
Language : Ukrainian

Text
ID : 3
Format : UTF-8
Codec ID : S_TEXT/UTF8
Codec ID/Info : UTF-8 Plain Text
Title : Ukrainian
Language : Ukrainian
Скріншоти
Перетискував цей 720p (блюрей довелось видалити через нестачу місця Happy ). Треба?

Віктор 
Відео Гуртом - субтитрування
Відео Гуртом - субтитрування


З нами з: 09.01.10
Востаннє: 05.12.16
Повідомлень: 8663

2011-12-18 22:00  
Drool написано:
Треба?

Ні, вистачить і цього.

AndriyVoron 
Свій


З нами з: 30.11.10
Востаннє: 03.12.16
Повідомлень: 127

2011-12-19 18:19  
Дуже гарний фільм про те як насправді треба ставитись до нелегальних мігрантів. Гарно показує наскільки блюзнірська та безглузда є насправді теорія мультинаціонального суспільства.
249 
Новенький


З нами з: 14.03.12
Востаннє: 13.11.16
Повідомлень: 13

2016-03-13 14:26  
Доброго дня! Дайте будь ласка роздачу!
249 
Новенький


З нами з: 14.03.12
Востаннє: 13.11.16
Повідомлень: 13

2016-03-28 21:30  
Хороший фільм
Ваш часовий пояс: GMT + 2 Години

Нова тема   Відповісти