Завантажити та скачати торренти українською


Дорз / The Doors (1991) 720p Ukr/Eng | Sub Eng

Нові коментарі

Нова тема   Відповісти
Автор Повідомлення
Віктор 
Відео Гуртом - субтитрування
Відео Гуртом - субтитрування


З нами з: 09.01.10
Востаннє: 07.12.16
Повідомлень: 8663

2011-12-18 15:06  
Дорз / The Doors (1991) 720p Ukr/Eng | Sub Eng

Дорз / The Doors (1991) 720p Ukr/Eng | Sub Eng

«"There are things known and things unknown and in between are The Doors." -- Jim Morrison»


Жанр: драма, музичний, біографічний
Країна: США



Кіностудія / кінокомпанія: Bill Graham Films, Carolco International N.V., Carolco Pictures
Режисер: Олівер Стоун (Oliver Stone)
Актори: Вел Кілмер (Val Kilmer), Меґ Раян (Meg Ryan), Кайл МакЛахлен (Kyle MacLachlan), Френк Вейлі (Frank Whaley), Кевін Діллон (Kevin Dillon), Майкл Вінкот (Michael Wincott), Майкл Медсен (Michael Madsen), Шон Стоун (Sean Stone), Біллі Айдол (Billy Idol), Келлі Гу (Kelly Hu), Джозі Біссет (Josie Bissett), Ліза Едельштайн (Lisa Edelstein), Мімі Роджерс (Mimi Rogers), Кріспін Ґловер (Crispin Glover) та інші.

Сюжет:
Класичний фільм про відомого американського музиканта й секс-символа Джима Моррісона, його легендарний гурт «Дорз» і славні шістдесяті. Це були роки небувалого прагнення до волі й приголомшливої популярності рок-н-ролу.

Його ідоли зводилися на п'єдестал, поклонялися й копіювалися. «Дорз» і їхня розкута та п'янка музика стали символом покоління.
Номінації та цікаві факти

Премія каналу «MTV», 1992 рік
Номінації (1):
Найкраща чоловіча роль (Вел Кілмер)

ММКФ, 1991 рік
Номінації (1):
Приз за найкращий фільм - Золотий «Святий Георгій»

Цікаві факти про фільм


• Кілмер, за заявою Стоуна - другий кандидат на роль, першим був Йєн Астбері (Ian Astbury) британський рок-співак. МакЛахлен, давній фанат Doors, заявляв, що хоче зіграти Моррісона, але погодився на роль Манзарека, після того як був обраний Кілмер.
• Кригер, Денсмор і Кеннелі були технічними радниками фільму. У той же самий час, учасники групи залишилися незадоволені кінцевим варіантом фільму, критикуючи Стоуна за зображення Моррісона неконтрольованим соціопатом, і заперечуючи це.
• У фільмі міститься більше двадцяти пісень The Doors. А вокал Кілмера безпосередньо накладено на оригінальні записи гурту. Він так точно зображував Моррісона, що навіть колишні члени групи іноді не могли відрізнити його виконання від оригінального запису.
• Джим зустрів Памелу Курсон в «London Fog», коли The Doors грали там, а не на вулиці як показано у фільмі.
• Коли у фільмі Моррісона просять змінити нецензурний текст у «Light My Fire» для виступу на «Ed Sullivan Show», він висловлює явне ігнорування прохання через бунтарство. Насправді ж, Моррісон казав, що це була випадковість, що він хотів змінити текст, але був настільки схвильований виконанням у прямому ефірі по телебаченню, що забув це зробити, коли співав.
• Це Жоель Бродський зробив знамениту фотографію Джима з голим торсом (на обкладинці альбому «Best Of The Doors», 1998), а не Ґлорія Ставерс.
• Олівер Стоун на початку своєї кар'єри познайомився з Джимом Моррісоном незадовго до його смерті.
• Реклама з піснею «Light my fire» по-справжньому не виходила. Джим не дав згоди компанії «Buick» її використовувати.
• Бюджет - $38,000,000
MediaInfo

Код:
General
Unique ID                                : 205534663514552334482944780561214462250 (0x9AA0894B6E1FD3F8A1970A5884E9D92A)
Complete name                            : D:\HURTOM\The Doors (1991) [Ukr, Eng] 720p [Hurtom].mkv
Format                                   : Matroska
Format version                           : Version 2
File size                                : 6.34 GiB
Duration                                 : 2h 20mn
Overall bit rate                         : 6 451 Kbps
Movie name                               : The Doors (1991) [Ukr, Eng] 720p [Hurtom]
Encoded by                               : [tRuAVC @ HD Uploaders]Skazhutin
Encoded date                             : UTC 2011-12-18 10:13:54
Writing application                      : mkvmerge v5.0.1 ('Es ist Sommer') built on Oct  9 2011 11:55:43
Writing library                          : libebml v1.2.2 + libmatroska v1.3.0
TITLE                                    : The Doors (1991) [tRuAVC @ HD Uploaders]
DATE_RELEASED                            : November 25th 2010
COMMENT                                  : /AVC// (Source: MPEG-4 AVC Video / 26981 kbps / 1080p / 23,976 fps / 16:9 / High Profile 4.1)
Attachment                               : Yes / Yes

Video
ID                                       : 1
Format                                   : AVC
Format/Info                              : Advanced Video Codec
Format profile                           : [email protected]
Format settings, CABAC                   : Yes
Format settings, ReFrames                : 10 frames
Codec ID                                 : V_MPEG4/ISO/AVC
Duration                                 : 2h 20mn
Bit rate                                 : 4 300 Kbps
Width                                    : 1 280 pixels
Height                                   : 544 pixels
Display aspect ratio                     : 2.35:1
Frame rate                               : 23.976 fps
Color space                              : YUV
Chroma subsampling                       : 4:2:0
Bit depth                                : 8 bits
Scan type                                : Progressive
Bits/(Pixel*Frame)                       : 0.258
Stream size                              : 4.10 GiB (65%)
Title                                    : The Doors (1991) [Ukr, Eng] 720p [Hurtom]
Writing library                          : core 107 r1766 f9f0035
Encoding settings                        : cabac=1 / ref=10 / deblock=1:-3:-2 / analyse=0x3:0x113 / me=umh / subme=10 / psy=1 / psy_rd=0.95:0.10 / mixed_ref=1 / me_range=32 / chroma_me=1 / trellis=2 / 8x8dct=1 / cqm=0 / deadzone=21,11 / fast_pskip=1 / chroma_qp_offset=-3 / threads=6 / sliced_threads=0 / nr=0 / decimate=1 / interlaced=0 / constrained_intra=0 / bframes=13 / b_pyramid=2 / b_adapt=2 / b_bias=0 / direct=3 / weightb=1 / open_gop=0 / weightp=2 / keyint=250 / keyint_min=23 / scenecut=40 / intra_refresh=0 / rc_lookahead=60 / rc=2pass / mbtree=0 / bitrate=4300 / ratetol=1.0 / qcomp=0.72 / qpmin=10 / qpmax=51 / qpstep=4 / cplxblur=20.0 / qblur=0.5 / vbv_maxrate=50000 / vbv_bufsize=62500 / ip_ratio=1.40 / pb_ratio=1.30 / aq=1:0.90 / zones=194388,202344,q=30 / nal_hrd=none
Language                                 : English
Matrix coefficients                      : BT.709-5, BT.1361, IEC 61966-2-4 709, SMPTE RP177

Audio #1
ID                                       : 2
Format                                   : AC-3
Format/Info                              : Audio Coding 3
Mode extension                           : CM (complete main)
Codec ID                                 : A_AC3
Duration                                 : 2h 20mn
Bit rate mode                            : Constant
Bit rate                                 : 448 Kbps
Channel(s)                               : 6 channels
Channel positions                        : Front: L C R, Side: L R, LFE
Sampling rate                            : 48.0 KHz
Bit depth                                : 16 bits
Compression mode                         : Lossy
Stream size                              : 451 MiB (7%)
Title                                    : 5.1 @ 448 kbps - двоголосий закадровий
Language                                 : Ukrainian

Audio #2
ID                                       : 3
Format                                   :
Format/Info                              : Digital Theater Systems
Codec ID                                 : A_DTS
Duration                                 : 2h 20mn
Bit rate mode                            : Constant
Bit rate                                 : 1 510 Kbps
Channel(s)                               : 6 channels
Channel positions                        : Front: L C R, Side: L R, LFE
Sampling rate                            : 48.0 KHz
Bit depth                                : 24 bits
Compression mode                         : Lossy
Stream size                              : 1.48 GiB (23%)
Title                                    : 5.1 @ 1536 kbps
Language                                 : English

Audio #3
ID                                       : 4
Format                                   : AC-3
Format/Info                              : Audio Coding 3
Mode extension                           : CM (complete main)
Codec ID                                 : A_AC3
Duration                                 : 2h 20mn
Bit rate mode                            : Constant
Bit rate                                 : 192 Kbps
Channel(s)                               : 2 channels
Channel positions                        : Front: L R
Sampling rate                            : 48.0 KHz
Bit depth                                : 16 bits
Compression mode                         : Lossy
Stream size                              : 193 MiB (3%)
Title                                    : 2.0 @ 192 kbps - Commentary
Language                                 : English

Text
ID                                       : 5
Format                                   : UTF-8
Codec ID                                 : S_TEXT/UTF8
Codec ID/Info                            : UTF-8 Plain Text
Language                                 : English

Menu
00:00:00.000                             : en:Opening Credits
00:04:53.234                             : en:Venice Beach
00:07:54.735                             : en:UCLA Film School
00:09:58.735                             : en:Beautiful Night
00:11:34.735                             : en:The Shaman
00:14:40.902                             : en:"The Doors of Perception."
00:18:09.236                             : en:Garage Session
00:21:42.270                             : en:Sunset Strip
00:23:42.070                             : en:The Musketeers
00:27:05.738                             : en:Trip to the Desert
00:39:42.739                             : en:Let's Go Make a Record
00:40:53.739                             : en:An Album of Killer Music
00:43:04.739                             : en:New York
00:44:58.573                             : en:The Ed Sullivan Show
00:47:58.073                             : en:The One They Want
00:50:00.573                             : en:The Warhol Party
00:56:18.140                             : en:Out On the Town
00:58:19.974                             : en:The Press Conference
01:01:04.808                             : en:Blood Ritual
01:05:15.808                             : en:"Will You Die for Me?"
01:08:57.475                             : en:New Haven, 1968
01:18:31.975                             : en:"Testing the Bounds of Reality."
01:19:49.975                             : en:Drinking Buddies
01:21:11.142                             : en:The Poet & His Muse
01:23:59.010                             : en:Another Ruined Thanksgiving
01:29:11.010                             : en:San Francisco, 1968
01:36:28.445                             : en:Too Drunk to Sing
01:43:19.079                             : en:Miami, 1969
01:57:34.848                             : en:Trial In Miami
02:01:30.215                             : en:Nervous Breakdown
02:02:44.016                             : en:Life On the Edge
02:05:07.083                             : en:Birthday Party
02:09:06.051                             : en:"Let's Get Some Tacos."
02:09:40.752                             : en:Paris, 1971
02:13:24.653                             : en:End Credits
Релізи та інформація про озвучення/дублювання

Завантажити:
720p Ukr/Eng | Sub Eng (6.34 GB) — двоголосий закадровий запис з 2+2
Ukr/Eng (2.9 GB) — двоголосий закадровий запис з 2+2

Ролі озвучили: Андрій Твердак і Людмила Ардельян
Тривалість: 02:20:39
Якість: 720p (Skazhutin)
Відео:
кодек:
розмір кадру: 1280x544 (2.353:1)
бітрейт: 4300 кб/с

Аудіо # 1:
мова: українська
переклад: двоголосий закадровий запис з 2+2 | Ролі озвучили: Андрій Твердак і Людмила Ардельян
кодек: 5.1
бітрейт: 448 кб/с

Аудіо # 2:
мова: англійська
переклад: оригінал
кодек: 5.1
бітрейт: 1536 кб/с

Аудіо # 3:
мова: англійська (коментарі режисера)
кодек: 2.0
бітрейт: 192 кб/с

Субтитри:
мова: англійська
тип: програмні (м'які)
формат: *.srt

Скріншоти:





За синхронізацію укр. доріжки подяка robotron005,
за запис звуку з ТБ подяка Romario_O


Джерело: &
Особиста оцінка: 10 - без зайвих вагань рекомендую всім


Срібний реліз (на рейтинг впливає 50% завантаженого)
 Трекер:    Зареєстрований   

Завантажити / скачати фільм українською



відео для новачків



 Зареєстрований:   2011-12-18 15:06
 Розмір:   6.34 GB 
 Оцінка фільму:   7/10 (Голосів: 13)
   
Інші релізи
   Дорз / The Doors (1991) Ukr/Eng | Sub Eng robotron005  2 / 0   2.9 GB   2010-06-02 12:05 
Ваш часовий пояс: GMT + 2 Години

Нова тема   Відповісти