Завантажити та скачати торренти українською


Армада - Salt (2004) [APE] | Alternative Metal

Нові коментарі

Нова тема   Відповісти
Останній раз роздавалося alenas2001 (2015-09-09)
Автор Повідомлення
Khtos 
Свій


З нами з: 24.06.09
Востаннє: 02.12.16
Повідомлень: 107

2011-12-17 23:19  
Армада - Salt (2004) [APE] | Alternative Metal


Стиль: Alternative Metal
Країна, місто: Україна, Слов'янськ
Видавець: гурт
Пісні:
    01. Intro
    02. Let's Do It
    03. Mirror
    04. Strange Dance
    05. G
    06. Венецiя
    07. Ангелы
    08. When You Go to Cry
    09. Raven
    10. Маленькое солнце
    11. Being
    12. Outro

Тривалість: 00:41:59
Мова: українська(6), російська(4-5,7,10), англійська(1-3,8-9,11-12)
Аудіо-кодек: APE
Бітрейт: 991 кб/с
Джерело: Власний ріп
Додаткова інформація:
"Log"

Exact Audio Copy V0.99 prebeta 4 from 23. January 2008

Отчёт EAC об извлечении, выполненном 17. февраля 2009, 23:52

Армада / Salt
Дисковод: _NEC DVD_RW ND-3570A Adapter: 0 ID: 0

Режим чтения : Достоверность
Использование точного потока : Да
Отключение кэша аудио : Да
Использование указателей C2 : Нет

Коррекция смещения при чтении : 48
Способность читать области Lead-in и Lead-out : Нет
Заполнение пропущенных сэмплов тишиной : Да
Удаление блоков с тишиной в начале и конце : Нет
При вычислениях CRC использовались нулевые сэмплы : Нет
Интерфейс : Установленный внешний ASPI-интерфейс

Выходной формат : Внутренние WAV-операции
Формат сэмплов : 44.100 Гц; 16 бит; стерео

TOC извлечённого CD

Трек | Старт | Длительность | Начальный сектор | Конечный сектор
---------------------------------------------------------------------
1 | 0:00.00 | 0:34.01 | 0 | 2550
2 | 0:34.01 | 4:16.61 | 2551 | 21811
3 | 4:50.62 | 4:09.01 | 21812 | 40487
4 | 8:59.63 | 4:07.10 | 40488 | 59022
5 | 13:06.73 | 4:16.00 | 59023 | 78222
6 | 17:22.73 | 4:01.31 | 78223 | 96328
7 | 21:24.29 | 3:47.34 | 96329 | 113387
8 | 25:11.63 | 3:49.38 | 113388 | 130600
9 | 29:01.26 | 2:26.59 | 130601 | 141609
10 | 31:28.10 | 3:18.00 | 141610 | 156459
11 | 34:46.10 | 3:14.34 | 156460 | 171043
12 | 38:00.44 | 1:26.59 | 171044 | 177552
13 | 41:59.28 | 13:41.54 | 188953 | 250581

Характеристики диапазона извлечения и сообщения об ошибках

Выбранный диапазон

Имя файла C:\Documents and Settings\Admin\Мои документы\Армада - Salt.wav

Пиковый уровень 97.8 %
Качество диапазона 100.0 %
CRC копии 4F02BB52
Копирование... OK

Ошибок не произошло

Конец отчёта
Бонуси:
Відеокліпи "Атлантида" та "Ненавижу весну"
Audio: MPEG Audio 44100Hz stereo 224Kbps [Audio]
Video: MPEG1 Video 352x288 (4:3) 25.00fps 1089Kbps [Video]
"screenshots"

Атлантида


Ненавижу весну


Якщо Ви справді бажаєте підтримати українське - після прослуховування, якщо музика вам сподобалась, придбайте ліцензійний диск. Підтримаємо вітчизняних виконавців!


Срібний реліз (на рейтинг впливає 50% завантаженого)
 Трекер:    Зареєстрований   

Завантажити / скачати українську музику



відео для новачків



 Зареєстрований:   2011-12-17 23:35
 Розмір:   424 MB 
 Оцінка музики:   7.5/10 (Голосів: 8)
   
Kitler 
Модератор програмного забезпечення


З нами з: 22.04.11
Востаннє: 08.12.16
Повідомлень: 591

2011-12-17 23:33  
Лише поради
Khtos написано:
Ape+cue, видеоклипы "Атлантида" и "Ненавижу весну"
відеокліпи

Khtos написано:

Мова: українська, російська, англійска

Аудіо-кодек: FLAC

Бітрейт: кб/с

Допиши бітрейт і вкажи, які пісні якою мовою.
Khtos написано:
"screenshots"
Можна було і українською написати.
Khtos написано:
(Hardcore) Армада - "Salt" - 2004, FLAC (image+.cue)
Назву за правилами напиши.
Khtos написано:
Стиль: Alternative
А в назві пише, що хардкор.
Khtos написано:

Бонусы:

Audio: MPEG Audio 44100Hz stereo 224Kbps [Audio]

Video: MPEG1 Video 384x288 (4:3) 25.00fps 1152Kbps [Video]
Що за відео, що за звук?

Додано через 1 хвилину 12 секунд:

Якщо немає сайтів, то зітри той рядок взагалі.

Додано через 3 хвилини 18 секунд:

Khtos написано:
Доп. информация: Армада / Salt
По-перше Доп. - це російською, а по-друге, якась коротка і незрозуміла інформація.

Khtos 
Свій


З нами з: 24.06.09
Востаннє: 02.12.16
Повідомлень: 107

2011-12-17 23:39  
Kitler
Друже, це не твій розділ : )))
Зараз виправлю.
А ще треба переслухати - вже не пам'ятаю які пісні українською.

civ 
VIP


З нами з: 16.02.11
Востаннє: 08.12.16
Повідомлень: 429

2011-12-18 00:15  
А чого "Ніжність" не виклав? Не маєш?
До речі, хтось має їхній перший альбом "5+5"? У мене тільки мп3... Sad (1)

iwan wan 
VIP


З нами з: 01.10.09
Востаннє: 08.12.16
Повідомлень: 1762

2011-12-18 00:18  
Khtos в мр3 робити будеш?
Khtos 
Свій


З нами з: 24.06.09
Востаннє: 02.12.16
Повідомлень: 107

2011-12-18 00:37  
civ
На жаль, не маю. "Нежность" подобається більше. І з задоволенням придбав би cd.

Додано через 38 секунд:

iwan wan
Якщо встигну, то завтра буде mp3.

Додано через 17 хвилин 1 секунду:

Поки що все. Перевіряйте. Завтра mp3 - насичений день сьогодні був

ХЕндрюХ 
Поважний учасник


З нами з: 14.12.09
Востаннє: 08.12.16
Повідомлень: 201

2011-12-18 02:31  
До хардкору ту як до Китаю рачки
Lev 
VIP


З нами з: 14.10.09
Востаннє: 05.12.16
Повідомлень: 1819

2011-12-18 06:15  
їхній стиль імхо - альтернативний метал.
Khtos 
Свій


З нами з: 24.06.09
Востаннє: 02.12.16
Повідомлень: 107

2011-12-28 20:49  
Хочу подякувати модераторам музичного розділу ssTAss та Skiff, які до користувачів звертаються на "Ви" та іншим чином виявляють до них повагу!
Ваш часовий пояс: GMT + 2 Години

Нова тема   Відповісти