Завантажити та скачати торренти українською


Назарій Яремчук - Вибране (Золота колекція) (2011) [FLAC] |Pop

Нові коментарі

Нова тема   Відповісти
Автор Повідомлення
Anonymous 







2011-12-16 17:45  
Назарій Яремчук - Вибране (Золота колекція) (2011) [FLAC] |Pop

Назарій Яремчук - Вибране (Золота колекція) (2011) [FLAC] |Pop


Стиль: Pop
Країна, місто: Україна ,Чернівці
Видавець: Астра Рекордс
Виконавці:
ВІА «Смерічка» (1-10), солісти Назарій Яремчук (1-8, 10), Василь Зінкевич (1, 4, 7), Надія Пащенко (2, 8); камерний оркестр (4)
Назарій Яремчук (11-21) у супроводі: ВІА «Смерічка» п / у Олександра Соколова (11, 12), інструмент. анс. п / у Геннадія Татарченка (13), анс. «Міраж» п / у Ігоря Корнилевич (14).
Записи 1970 (1), 1975 (2-5, 7, 8), 1976 (6), 1981 (20) 1982 (9, 12), 1983 (11), 1985 (10), 1986 (13), 1988 (14), 1991 (19, 21), 1992 (15-18) рр..
Пісні:
    1.Червона рута
    2.Водограй
    3.Єдина
    4.Горянка
    5.Незрівнянний світ краси
    6.Два перстені
    7.Пісня буде поміж нас
    8.Я – твоє крило
    9.Гай, зелений гай
    10.Білі лілеї
    11.Квітка розмарія
    12.Як я тебе кохав
    13.Полісяночка
    14.Чумацький шлях
    15.Твоє вікно
    16.Там за дорогами
    17.Заграй, дударику
    18.Віхола
    19.Родина
    20.Запроси мене у сни
    21.Де смереки стрункі

Тривалість: 01:17:20
Мова: українська
Аудіо-кодек: FLAC
Бітрейт: 1024 кб/с
Джерело: Інтернет
Додаткова інформація:
"Його щедро обдарував Господь – унікальним голосом, прекрасною зовнішністю, розумом, делікатністю. Доля була прихильною до нього – бо 17-річний шофер зустрів на своєму шляху людину, яка взяла на себе працю допомогти розкритися його таланту. Наприкінці 1966 року в Вижниці на Буковині Левко Дутківський створює ВІА "Смерічка", якому судилося здійснити справжній переворот в українській естрадній музиці. В 1969-му почав приходити на репетиції Назарій Яремчук...
Для нового соліста Дутківський написав пісню "Незрівнянний світ краси", яка стала своєрідною візиткою Яремчука. Але у свідомості людей того покоління назавжди лишився в пам’яті виступ на сцені концертної студії "Останкіно" знаменитого буковинського тріо: Володимира Івасюка, Василя Зинкевича та Назарія Яремчука, які виконували "Червону руту"..." Парасковія Нечаєва (інформація з поліграфії до видання
log
Exact Audio Copy V1.0 beta 3 from 29. August 2011

Отчёт EAC об извлечении, выполненном 24. ноября 2011, 16:47

Nazariy Yaremchuk / Selected

Дисковод: PLEXTOR CD-R PX-W1210S Adapter: 6 ID: 4

Режим чтения : Достоверность
Использование точного потока : Да
Отключение кэша аудио : Да
Использование указателей C2 : Нет

Коррекция смещения при чтении : 98
Способность читать области Lead-in и Lead-out : Нет
Заполнение пропущенных сэмплов тишиной : Да
Удаление блоков с тишиной в начале и конце : Нет
При вычислениях CRC использовались нулевые сэмплы : Да
Интерфейс : Встроенный Win32-интерфейс для Win NT/2000
Обработка зазоров : Добавлено к предыдущему треку

Выходной формат : Пользовательский кодировщик
Выбранный битрейт : 1024 kBit/s
Качество : Высокий
Добавление ID3-тега : Нет
Утилита сжатия : C:\Program Files\Exact Audio Copy 1.0\Flac\flac.exe
Дополнительные параметры : -V -8 -T "Genre=%genre%" -T "Artist=%artist%" -T "Title=%title%" -T "Album=%albumtitle%" -T "Date=%year%" -T "Tracknumber=%tracknr%" -T "Comment=%comment%" %source%

TOC извлечённого CD

Трек | Старт | Длительность | Начальный сектор | Конечный сектор
---------------------------------------------------------------------
1 | 0:00.00 | 3:09.45 | 0 | 14219
2 | 3:09.45 | 3:26.32 | 14220 | 29701
3 | 6:36.02 | 2:39.46 | 29702 | 41672
4 | 9:15.48 | 3:47.31 | 41673 | 58728
5 | 13:03.04 | 2:26.35 | 58729 | 69713
6 | 15:29.39 | 2:52.11 | 69714 | 82624
7 | 18:21.50 | 3:41.42 | 82625 | 99241
8 | 22:03.17 | 3:29.08 | 99242 | 114924
9 | 25:32.25 | 3:06.11 | 114925 | 128885
10 | 28:38.36 | 4:03.24 | 128886 | 147134
11 | 32:41.60 | 5:21.10 | 147135 | 171219
12 | 38:02.70 | 4:23.00 | 171220 | 190944
13 | 42:25.70 | 2:05.62 | 190945 | 200381
14 | 44:31.57 | 5:18.64 | 200382 | 224295
15 | 49:50.46 | 4:05.44 | 224296 | 242714
16 | 53:56.15 | 4:12.26 | 242715 | 261640
17 | 58:08.41 | 3:36.13 | 261641 | 277853
18 | 61:44.54 | 4:07.29 | 277854 | 296407
19 | 65:52.08 | 3:10.58 | 296408 | 310715
20 | 69:02.66 | 4:01.50 | 310716 | 328840
21 | 73:04.41 | 4:15.36 | 328841 | 348001

Трек 1

Имя файла D:\+DVD Projects\_SAMPLE\CD_Nazariy Yaremchuk - Selected\01 'Smerichka' Chervona ruta.wav

Длина предзазора 0:00:02.00

Пиковый уровень 90.0 %
Скорость извлечения 1.8 X
Качество трека 100.0 %
CRC теста FA296B3D
CRC копии FA296B3D
Копирование... OK

Трек 2

Имя файла D:\+DVD Projects\_SAMPLE\CD_Nazariy Yaremchuk - Selected\02 'Smerichka' Vodohray.wav

Длина предзазора 0:00:02.56

Пиковый уровень 98.0 %
Скорость извлечения 1.8 X
Качество трека 100.0 %
CRC теста 5C0D92F5
CRC копии 5C0D92F5
Копирование... OK

Трек 3

Имя файла D:\+DVD Projects\_SAMPLE\CD_Nazariy Yaremchuk - Selected\03 'Smerichka' Yedyna.wav

Длина предзазора 0:00:02.56

Пиковый уровень 98.0 %
Скорость извлечения 1.8 X
Качество трека 100.0 %
CRC теста A61A6160
CRC копии A61A6160
Копирование... OK

Трек 4

Имя файла D:\+DVD Projects\_SAMPLE\CD_Nazariy Yaremchuk - Selected\04 'Smerichka' Horyanka.wav

Длина предзазора 0:00:02.56

Пиковый уровень 98.0 %
Скорость извлечения 1.8 X
Качество трека 99.9 %
CRC теста 0F9383C5
CRC копии 0F9383C5
Копирование... OK

Трек 5

Имя файла D:\+DVD Projects\_SAMPLE\CD_Nazariy Yaremchuk - Selected\05 'Smerichka' Nezrivnyannyi svit krasy.wav

Длина предзазора 0:00:02.56

Пиковый уровень 98.0 %
Скорость извлечения 1.8 X
Качество трека 100.0 %
CRC теста C46548F0
CRC копии C46548F0
Копирование... OK

Трек 6

Имя файла D:\+DVD Projects\_SAMPLE\CD_Nazariy Yaremchuk - Selected\06 'Smerichka' Dva persteni.wav

Длина предзазора 0:00:02.56

Пиковый уровень 98.0 %
Скорость извлечения 1.8 X
Качество трека 100.0 %
CRC теста E66E5DF0
CRC копии E66E5DF0
Копирование... OK

Трек 7

Имя файла D:\+DVD Projects\_SAMPLE\CD_Nazariy Yaremchuk - Selected\07 'Smerichka' Pisnya bude pomizh nas.wav

Длина предзазора 0:00:02.56

Пиковый уровень 87.3 %
Скорость извлечения 1.8 X
Качество трека 100.0 %
CRC теста 51230812
CRC копии 51230812
Копирование... OK

Трек 8

Имя файла D:\+DVD Projects\_SAMPLE\CD_Nazariy Yaremchuk - Selected\08 'Smerichka' Ya tvoye krylo.wav

Длина предзазора 0:00:02.56

Пиковый уровень 98.0 %
Скорость извлечения 1.8 X
Качество трека 100.0 %
CRC теста 1AE74D85
CRC копии 1AE74D85
Копирование... OK

Трек 9

Имя файла D:\+DVD Projects\_SAMPLE\CD_Nazariy Yaremchuk - Selected\09 'Smerichka' Hay, zelenyi hay.wav

Длина предзазора 0:00:02.37

Пиковый уровень 98.0 %
Скорость извлечения 1.8 X
Качество трека 100.0 %
CRC теста 302E4C6F
CRC копии 302E4C6F
Копирование... OK

Трек 10

Имя файла D:\+DVD Projects\_SAMPLE\CD_Nazariy Yaremchuk - Selected\10 'Smerichka' Bili lileyi.wav

Длина предзазора 0:00:02.37

Пиковый уровень 77.8 %
Скорость извлечения 1.8 X
Качество трека 99.9 %
CRC теста 2B69D9D5
CRC копии 2B69D9D5
Копирование... OK

Трек 11

Имя файла D:\+DVD Projects\_SAMPLE\CD_Nazariy Yaremchuk - Selected\11 Nazariy Yaremchuk and 'Smerichka' Kvitka rozmariya.wav

Длина предзазора 0:00:02.56

Пиковый уровень 98.0 %
Скорость извлечения 1.9 X
Качество трека 100.0 %
CRC теста 177C2A0E
CRC копии 177C2A0E
Копирование... OK

Трек 12

Имя файла D:\+DVD Projects\_SAMPLE\CD_Nazariy Yaremchuk - Selected\12 Nazariy Yaremchuk and 'Smerichka' Yak ya tebe kokhav.wav

Длина предзазора 0:00:02.46

Пиковый уровень 98.0 %
Скорость извлечения 1.8 X
Качество трека 100.0 %
CRC теста A1312FDB
CRC копии A1312FDB
Копирование... OK

Трек 13

Имя файла D:\+DVD Projects\_SAMPLE\CD_Nazariy Yaremchuk - Selected\13 Nazariy Yaremchuk Polisyanochka.wav

Длина предзазора 0:00:02.22

Пиковый уровень 98.0 %
Скорость извлечения 1.7 X
Качество трека 99.9 %
CRC теста 8A01ABF0
CRC копии 8A01ABF0
Копирование... OK

Трек 14

Имя файла D:\+DVD Projects\_SAMPLE\CD_Nazariy Yaremchuk - Selected\14 Nazariy Yaremchuk Chumatskyi shlyakh.wav

Длина предзазора 0:00:02.56

Пиковый уровень 87.3 %
Скорость извлечения 1.9 X
Качество трека 100.0 %
CRC теста FB8AE7A7
CRC копии FB8AE7A7
Копирование... OK

Трек 15

Имя файла D:\+DVD Projects\_SAMPLE\CD_Nazariy Yaremchuk - Selected\15 Nazariy Yaremchuk Tvoye vikno.wav

Длина предзазора 0:00:02.46

Пиковый уровень 98.0 %
Скорость извлечения 1.8 X
Качество трека 100.0 %
CRC теста 1BC14CCD
CRC копии 1BC14CCD
Копирование... OK

Трек 16

Имя файла D:\+DVD Projects\_SAMPLE\CD_Nazariy Yaremchuk - Selected\16 Nazariy Yaremchuk Tam za dorohamy.wav

Длина предзазора 0:00:02.52

Пиковый уровень 98.0 %
Скорость извлечения 1.8 X
Качество трека 100.0 %
CRC теста 32D0F29F
CRC копии 32D0F29F
Копирование... OK

Трек 17

Имя файла D:\+DVD Projects\_SAMPLE\CD_Nazariy Yaremchuk - Selected\17 Nazariy Yaremchuk Zahray, dudaryku.wav

Длина предзазора 0:00:02.56

Пиковый уровень 98.0 %
Скорость извлечения 1.8 X
Качество трека 100.0 %
CRC теста 86A7AA6E
CRC копии 86A7AA6E
Копирование... OK

Трек 18

Имя файла D:\+DVD Projects\_SAMPLE\CD_Nazariy Yaremchuk - Selected\18 Nazariy Yaremchuk Vikhola.wav

Длина предзазора 0:00:02.56

Пиковый уровень 98.0 %
Скорость извлечения 1.8 X
Качество трека 100.0 %
CRC теста 84BEF434
CRC копии 84BEF434
Копирование... OK

Трек 19

Имя файла D:\+DVD Projects\_SAMPLE\CD_Nazariy Yaremchuk - Selected\19 Nazariy Yaremchuk Rodyna.wav

Длина предзазора 0:00:02.56

Пиковый уровень 87.3 %
Скорость извлечения 1.8 X
Качество трека 100.0 %
CRC теста 300FC7D4
CRC копии 300FC7D4
Копирование... OK

Трек 20

Имя файла D:\+DVD Projects\_SAMPLE\CD_Nazariy Yaremchuk - Selected\20 Nazariy Yaremchuk Zaprosy mene u sny.wav

Длина предзазора 0:00:02.56

Пиковый уровень 98.0 %
Скорость извлечения 1.8 X
Качество трека 99.9 %
CRC теста 31966AAB
CRC копии 31966AAB
Копирование... OK

Трек 21

Имя файла D:\+DVD Projects\_SAMPLE\CD_Nazariy Yaremchuk - Selected\21 Nazariy Yaremchuk De smereky strunki.wav

Длина предзазора 0:00:02.56

Пиковый уровень 98.0 %
Скорость извлечения 1.6 X
Качество трека 100.0 %
CRC теста E83DF462
CRC копии E83DF462
Копирование... OK

Ошибок не произошло

Конец отчёта

---- CUETools DB Plugin V2.1.3

[CTDB TOCID: QVnZthcBPBhHZdN.CPUP26OVoWw-] database access error: Время ожидания операции истекло

==== Контрольная сумма отчёта CEBA9DDB88B4D586E35C7057DE47CEC9796BED194C5EF7815A769AF8AD2190E9 ====

Якщо Ви справді бажаєте підтримати українське - після прослуховування, якщо музика вам сподобалась, придбайте ліцензійний диск. Підтримаймо вітчизняних виконавців!


Срібний реліз (на рейтинг впливає 50% завантаженого)
 Трекер:    Зареєстрований   

Завантажити / скачати українську музику



відео для новачків



 Зареєстрований:   2011-12-16 17:45
 Розмір:   430 MB 
 Оцінка музики:   10/10 (Голосів: 44)
   
far2shok 
Новенький


З нами з: 21.06.09
Востаннє: 01.11.16
Повідомлень: 13

2011-12-16 23:15  
Українська класика.
Дякую...

Anonymous 







2011-12-17 02:02  
far2shok написано:

Українська класика.
Дякую...

Насолоджуйтесь Wink (2)

paulrufous 
Свій


З нами з: 04.03.11
Востаннє: 04.12.16
Повідомлень: 74

2011-12-18 13:36  
Класика, дайте золото!
Vovka morkovka 
Свій


З нами з: 24.11.10
Востаннє: 30.11.16
Повідомлень: 69

2012-02-25 07:06  
Українська музика найкраща!

P.S. Насправді дайте золото!

lasmen 
VIP


З нами з: 08.12.11
Востаннє: 11.08.13
Повідомлень: 625

2012-03-13 15:19  
Чудова це людина. Гарні пісні співав. Ще, пам'ятаю коли на "Пісні-71" виступали "Василь Зінкевич, Назарій Яремчук та Володимир Івасюк" з піснею "Червона рута". Всіх взули. Виграли "Пісні-71"

Додано через 1 хвилину 2 секунди:

Ой. Забув подякувати. Дякую за такий чудовий реліз

VictoriaRegina 
Свій


З нами з: 25.02.10
Востаннє: 05.08.15
Повідомлень: 121

2012-05-08 22:21  
Дякую автору за те, що порізано по піснях. Респект!
Ваш часовий пояс: GMT + 2 Години

Нова тема   Відповісти