Завантажити та скачати торренти українською


Дім марень / Dream House (2011) 720p

Нові коментарі

Нова тема   Відповісти
Автор Повідомлення
Anonymous 







2011-12-16 11:24  
Дім марень / Dream House (2011) 720p

Дім марень / Dream House (2011) 720p
Оригінальний постер:
Дім марень / Dream House (2011) 720p


Жанр: драма, містика, триллер
Країна: США



Кіностудія / кінокомпанія: Cliffjack Motion Pictures, Morgan Creek Productions
Режисер: Джим Шерідан
Актори: Деніел Крейґ, Наомі Уотс, Рейчел Вайз, Клер Ґір, Тейлор Ґір

Сюжет:
Заможний видавець зі своєю дружиною і двома дочками переїжджають до тихого провінційного містечка, яке на перевірку виявляється не таким вже й тихим. Не без допомоги сусідки сімейство дізнається, що їх будинок став місцем жорстокого вбивства, а злочинець досі розгулює на волі.


Тривалість: 01:30:49
Якість:
Відео:
кодек:
розмір кадру: 1280x536
бітрейт: 5374 кб/с

Аудіо: Skiff
мова: українська (Line)
переклад: професійний дубльований
кодек: 2.0
бітрейт: 384 кб/с
MediaInfo

Format : Matroska
File size : 3.65 GiB
Duration : 1h 30mn
Overall bit rate : 5 760 Kbps
Encoded date : UTC 2011-12-16 09:14:26
Writing application : mkvmerge v2.4.2 ('Oh My God') built on Jan 18 2009 17:30:28
Writing library : libebml v0.7.7 + libmatroska v0.8.1
Video #1
ID : 1
Format : AVC
Format/Info : Advanced Video Codec
Format profile : [email protected]
Format settings, CABAC : Yes
Format settings, ReFrames : 4 frames
Muxing mode : Container [email protected]
Codec ID : V_MPEG4/ISO/AVC
Duration : 1h 30mn
Bit rate : 5 261 Kbps
Nominal bit rate : 5 374 Kbps
Width : 1 280 pixels
Height : 536 pixels
Display aspect ratio : 2.35:1
Frame rate : 23.976 fps
Resolution : 24 bits
Colorimetry : 4:2:0
Scan type : Progressive
Bits/(Pixel*Frame) : 0.320
Stream size : 3.33 GiB (91%)
Writing library : core 119 r2106 07efeb4
Encoding settings : cabac=1 / ref=3 / deblock=1:0:0 / analyse=0x3:0x133 / me=hex / subme=5 / psy=1 / psy_rd=1.00:0.00 / mixed_ref=0 / me_range=16 / chroma_me=1 / trellis=1 / 8x8dct=1 / cqm=0 / deadzone=21,11 / fast_pskip=1 / chroma_qp_offset=0 / threads=12 / sliced_threads=0 / nr=0 / decimate=1 / interlaced=0 / bluray_compat=0 / constrained_intra=0 / bframes=16 / b_pyramid=2 / b_adapt=1 / b_bias=0 / direct=3 / weightb=0 / open_gop=0 / weightp=2 / keyint=250 / keyint_min=23 / scenecut=40 / intra_refresh=0 / rc_lookahead=40 / rc=2pass / mbtree=1 / bitrate=5374 / ratetol=1.0 / qcomp=0.60 / qpmin=0 / qpmax=69 / qpstep=4 / cplxblur=20.0 / qblur=0.5 / ip_ratio=1.40 / aq=1:1.00
Audio #2
ID : 2
Format : AC-3
Format/Info : Audio Coding 3
Format profile : Dolby Digital
Codec ID : A_AC3
Duration : 1h 30mn
Bit rate mode : Constant
Bit rate : 384 Kbps
Channel(s) : 2 channels
Channel positions : L R
Sampling rate : 48.0 KHz
Stream size : 249 MiB (7%)
Скріншоти:


Особиста оцінка: не дивився


 Трекер:    Зареєстрований   

Завантажити / скачати фільм українською



відео для новачків



 Зареєстрований:   2011-12-16 11:24
 Розмір:   3.65 GB 
 Оцінка фільму:   8.3/10 (Голосів: 28)
   
Інші релізи
   Дім марень / Dream House (2011) patriot2305  11 / 0   1.45 GB   2015-08-02 16:26 
   Дім марень / Dream House (2011) 2xUkr patriot2305  2 / 0   1.58 GB   2012-11-02 23:45 
   Дім марень / Dream House (2011) 720p-mini | Line oleh_oleh  2 / 0   2.19 GB   2012-01-20 10:36 
skuline 
Свій


З нами з: 17.12.11
Востаннє: 10.12.16
Повідомлень: 114

2013-05-07 14:21  
реально 9 балів з 10
Sem1309 
Свій


З нами з: 05.07.09
Востаннє: 09.12.16
Повідомлень: 60

2013-12-14 10:50  
Класний фільм 10/10.
Ваш часовий пояс: GMT + 2 Години

Нова тема   Відповісти