Завантажити та скачати торренти українською


Інші 48 годин / Another 48 Hrs. (1990) Ukr/Eng

Нові коментарі

Нова тема   Відповісти
Автор Повідомлення
rooster 
Відео Гуртом - фільмокрай
Відео Гуртом - фільмокрай


З нами з: 23.04.09
Востаннє: 04.12.16
Повідомлень: 1328

2011-12-11 18:43  
Інші 48 годин / Another 48 Hrs. (1990) Ukr/Eng



Жанр: бойовик, комедія, кримінальний
Країна: США



Кіностудія / кінокомпанія: Eddie Murphy Productions, Paramount Pictures
Режисер: Волтер Гілл
Актори: Едді Мерфі, Нік Нолті, Брайон Джеймс, Кевін Тай, Ед О’Росс, Девід Ентоні Маршалл, Ендрю Дівофф, Берні Кейсі, Брент Дженнінґс, Тед Маркленд

Сюжет:
Натовп полює за головою Реггі. Автобус, в якому він їде, перевертається 17 разів. Його Порше перетворюється на купу металу. Покидьки в барі ще не знають, як небезпечно дратувати Реггі. А ніч ще тільки починається. За ці 48 годин Реггі і Джек перевернуть весь Сан-Франциско в гонитві за невловимим наркобароном. Хлопці повернулися в місто ... розгардіяш на вулицях починається.


Тривалість: 01:31:23
Якість:
Відео:
кодек:
розмір кадру: 720x400
бітрейт: 1896 кб/с

Аудіо # 1:
мова: українська
переклад: багатоголосий закадровий
кодек: 5.1
бітрейт: 448 кб/с

Аудіо # 2:
мова: англійська
переклад: оригінал
кодек: 5.1
бітрейт: 448 кб/с

Українською мовою озвучено "Так треба продакшн", трансляція
Моя подяка пану karvai0 за здійснення запису з ТБ

Скріншоти:



Джерело:
Особиста оцінка: 10 - без зайвих вагань рекомендую всім!


Срібний реліз (на рейтинг впливає 50% завантаженого)
 Трекер:    Зареєстрований   

Завантажити / скачати фільм українською



відео для новачків



 Зареєстрований:   2011-12-11 18:46
 Розмір:   2.04 GB 
 Оцінка фільму:   9.6/10 (Голосів: 16)
   
Anonymous 







2011-12-11 21:37  
Бойовичок з Едді)
HETMAN1 
VIP


З нами з: 13.10.09
Востаннє: 07.12.16
Повідомлень: 286

2011-12-12 08:55  
Цитата:
Особиста оцінка: 10 - без зайвих вагань рекомендую всім!
 Підтримую
Sm1Le 
Новенький


З нами з: 09.07.11
Востаннє: 06.02.13
Повідомлень: 6

2011-12-12 20:48  
тут 2 українські доріжки!
MutuLI 
Відео Гуртом - фільмокрай
Відео Гуртом - фільмокрай


З нами з: 08.03.09
Востаннє: 10.12.16
Повідомлень: 1252

2011-12-12 21:28  
rooster написано:

Аудіо # 1:
мова: українська
переклад: багатоголосий закадровий
кодек: 5.1
бітрейт: 448 кб/с

Sm1Le написано:
тут 2 українські доріжки!

Та ні, одна...

leroykendall 
Модератор HD


З нами з: 03.01.11
Востаннє: 20.11.16
Повідомлень: 749

2011-12-12 21:40  
Sm1Le написано:
тут 2 українські доріжки!

Підтверджую. Тут 3 доріжки: дві українські і одна оригінальна.
При цьому в українських доріжках однаковий звук, тільки біт рейт різний - 384kbps та 448kbps відповідно.

Додано через 5 хвилин 34 секунди:
MediaInfo

General
Complete name : Another 48 Hrs. (1990) [Ukr.AC3_5.1, Eng] [Hurtom].avi
Format : AVI
Format/Info : Audio Video Interleave
Format profile : OpenDML
File size : 2.04 GiB
Duration : 1h 31mn
Overall bit rate : 3 202 Kbps
Writing application : VirtualDubMod 1.5.10.2 (build 2540/release)
Writing library : VirtualDubMod build 2540/release

Video
ID : 0
Format : MPEG-4 Visual
Format profile : [email protected]
Format settings, BVOP : Yes
Format settings, QPel : No
Format settings, GMC : No warppoints
Format settings, Matrix : Default (MPEG)
Codec ID :
Codec ID/Hint :
Duration : 1h 31mn
Bit rate : 1 897 Kbps
Width : 720 pixels
Height : 400 pixels
Display aspect ratio : 16:9
Frame rate : 25.000 fps
Resolution : 24 bits
Colorimetry : 4:2:0
Scan type : Progressive
Bits/(Pixel*Frame) : 0.263
Stream size : 1.21 GiB (59%)
Writing library : 1.2.0.dev47 (UTC 2006-11-01)

Audio #1
ID : 1
Format : AC-3
Format/Info : Audio Coding 3
Codec ID : 2000
Duration : 1h 31mn
Bit rate mode : Constant
Bit rate : 384 Kbps
Channel(s) : 6 channels
Channel positions : Front: L C R, Surround: L R, LFE
Sampling rate : 48.0 KHz
Stream size : 251 MiB (12%)
Alignment : Split accross interleaves
Interleave, duration : 40 ms (1.00 video frame)
Interleave, preload duration : 500 ms

Audio #2
ID : 2
Format : AC-3
Format/Info : Audio Coding 3
Codec ID : 2000
Duration : 1h 31mn
Bit rate mode : Constant
Bit rate : 448 Kbps
Channel(s) : 6 channels
Channel positions : Front: L C R, Surround: L R, LFE
Sampling rate : 48.0 KHz
Stream size : 293 MiB (14%)
Alignment : Split accross interleaves
Interleave, duration : 40 ms (1.00 video frame)
Interleave, preload duration : 500 ms

Audio #3
ID : 3
Format : AC-3
Format/Info : Audio Coding 3
Codec ID : 2000
Duration : 1h 31mn
Bit rate mode : Constant
Bit rate : 448 Kbps
Channel(s) : 6 channels
Channel positions : Front: L C R, Surround: L R, LFE
Sampling rate : 48.0 KHz
Stream size : 293 MiB (14%)
Alignment : Split accross interleaves
Interleave, duration : 40 ms (1.00 video frame)
Interleave, preload duration : 500 ms

rooster 
Відео Гуртом - фільмокрай
Відео Гуртом - фільмокрай


З нами з: 23.04.09
Востаннє: 04.12.16
Повідомлень: 1328

2011-12-12 21:49  
leroykendall написано:
Sm1Le написано: тут 2 українські доріжки!

Підтверджую. Тут 3 доріжки: дві українські і одна оригінальна.

При цьому в українських доріжках однаковий звук, тільки біт рейт різний - 384kbps та 448kbps відповідно.

Сталася накладка при зведенні звуку, бува, поспішав. Кому заважає друга укр. дорога - видаліть її... Не дуже хочеться переробляти торрент

1otdel 
Новенький


З нами з: 03.11.13
Востаннє: 08.12.16
Повідомлень: 1

2013-12-02 17:16  
Народ, дайте швидкості!!!!!!
Уже другий день сиджу з відміткою 70 відсотків!!! Cry (2) Cry (1)

kino. 
Модератор відео


З нами з: 27.06.10
Востаннє: 10.12.16
Повідомлень: 2900

2013-12-02 17:28  
1otdel Ваш рейтинг опустився нижче 0,15. Коли він підніметься до цього рівня, ви знову зможете завантажувати торрент-файли. Почитайте ЦЕ
bodia87 
Відео Гуртом - фільмокрай
Відео Гуртом - фільмокрай


З нами з: 24.01.09
Востаннє: 11.12.16
Повідомлень: 468

2016-03-15 15:04  
По НТН та Інтер-у транслювали з ідентичним озвученням !
Ваш часовий пояс: GMT + 2 Години

Нова тема   Відповісти