Завантажити та скачати торренти українською


Нічка жахів / Fright Night (2011) 720p Ukr/Eng | Sub Ukr/Eng

Нові коментарі

Нова тема   Відповісти
Автор Повідомлення
Andick 
Модератор відео та координатор поширення


З нами з: 03.11.09
Востаннє: 03.12.16
Повідомлень: 1499

2011-12-09 20:43  
Нічка жахів / Fright Night (2011) 720p Ukr/Eng | Sub Ukr/Eng



Жанр: комедія, жахи
Країна: США, Індія



Кіностудія / кінокомпанія: Albuquerque Studios, DreamWorks SKG, Gaeta / Rosenzweig Films
Режисер: Крейг Гіллеспі / Craig Gillespie
Актори: Антон Єльчин / Anton Yelchin, Колін Фаррелл / Colin Farrell, Крістофер Мінц-Плассе / Christopher Mintz-Plasse, Імоджен Путс / Imogen Poots, Девід Теннант / David Tennant, Тоні Коллетт / Toni Collette, та інші.

Сюжет:
У старшокласника Чарлі Брюстера справи пішли в гору: він став частиною крутої тусовки і почав зустрічатися з найпопулярнішою дівчиною в школі. Він навіть почав підколювати свого кращого друга. Але раптово все змінюється. Новий сусід Джері, здається, на перший погляд звичайною людиною, але Чарлі відчуває недобре. Всі довкола, включаючи маму Чарлі не помічають нічого підозрілого. Встановивши спостереження за сусідом, Чарлі взнає страшну таємницю: його сусід — вампір! Зневірившись переконати в цьому оточуючих, Чарлі вирішує знайти спосіб позбавитися від монстра особисто.

Ріп від EbP

Тривалість: 01:45:57
Якість:
Відео:
кодек:
розмір кадру: 1280 х 720
бітрейт: 5205 кб/с

Аудіо # 1:
мова: українська
переклад: професійний дубльований
кодек: 5.1
бітрейт: 640 кб/с

Аудіо # 2:
мова: англійська
переклад: оригінал
кодек:
бітрейт: 1510 кб/с

Джерело озвучення:


Субтитри:
мова: українська
тип: пререндерні
формат: *.srt

Субтитри:
мова: англійська
тип: пререндерні
формат: *.srt
Інформація про дубляж
Дубльовано LeDoyen Studio на замовлення компанії Disney Character Voices International і дистриб'ютора B&H Film Distribution
Перекладач: Сергій Ковальчук
Режисер дубляжу: Анна Пащенко
Creative supervisor: Mariusz Arno Jaworowski
Ролі дублювали: Антон Єльчин/Чарлі - Андрій Федінчик, Колін Фаррелл/Джері - Андрій Твердак, Імоджен Потс/Еймі - Катерина Буцька, Крістофер Мінтц Плейс/Ед - Максим Цедзінський, Тоні Коллет/Джейн - Олена Яблучна, Девід Теннан/Пітер - Андрій Самінін, Ольга Цибульська, Кирило Андрєєв, Світлана Шекера та інші.
MediaInfo
Format : Matroska
File size : 5.44 GiB
Duration : 1h 45mn
Overall bit rate : 7 352 Kbps
Movie name : Fright.Night.2011.720p.BDRip_EbP
Encoded date : UTC 2011-12-09 18:15:10
Writing application : mkvmerge v5.1.0 ('And so it goes') built on Nov 28 2011 23:58:28
Writing library : libebml v1.2.3 + libmatroska v1.3.0

Video
ID : 1
Format : AVC
Format/Info : Advanced Video Codec
Format profile : [email protected]
Format settings, CABAC : Yes
Format settings, ReFrames : 9 frames
Muxing mode : Header stripping
Codec ID : V_MPEG4/ISO/AVC
Duration : 1h 45mn
Bit rate : 5 205 Kbps
Width : 1 280 pixels
Height : 720 pixels
Display aspect ratio : 16:9
Frame rate : 23.976 fps
Color space : YUV
Chroma subsampling : 4:2:0
Bit depth : 8 bits
Scan type : Progressive
Bits/(Pixel*Frame) : 0.236
Stream size : 3.74 GiB (69%)
Title : 1280x720 - 5205kbit/s -
Writing library : core 119 r2106 07efeb4
Encoding settings : cabac=1 / ref=9 / deblock=1:-3:-3 / analyse=0x3:0x113 / me=esa / subme=10 / psy=1 / psy_rd=1.00:0.00 / mixed_ref=1 / me_range=24 / chroma_me=1 / trellis=2 / 8x8dct=1 / cqm=0 / deadzone=21,11 / fast_pskip=0 / chroma_qp_offset=-2 / threads=6 / sliced_threads=0 / nr=0 / decimate=0 / interlaced=0 / bluray_compat=0 / constrained_intra=0 / bframes=7 / b_pyramid=2 / b_adapt=2 / b_bias=0 / direct=3 / weightb=1 / open_gop=0 / weightp=2 / keyint=250 / keyint_min=23 / scenecut=40 / intra_refresh=0 / rc_lookahead=60 / rc=2pass / mbtree=1 / bitrate=5205 / ratetol=1.0 / qcomp=0.60 / qpmin=0 / qpmax=69 / qpstep=4 / cplxblur=20.0 / qblur=0.5 / ip_ratio=1.40 / aq=1:0.80
Language : English

Audio #1
ID : 2
Format : AC-3
Format/Info : Audio Coding 3
Mode extension : CM (complete main)
Muxing mode : Header stripping
Codec ID : A_AC3
Duration : 1h 45mn
Bit rate mode : Constant
Bit rate : 640 Kbps
Channel(s) : 6 channels
Channel positions : Front: L C R, Side: L R, LFE
Sampling rate : 48.0 KHz
Bit depth : 16 bits
Compression mode : Lossy
Stream size : 485 MiB (9%)
Title : 5.1 @ 640 kbps - Дубльований, Blu-ray EUR
Language : Ukrainian

Audio #2
ID : 3
Format :
Format/Info : Digital Theater Systems
Muxing mode : Header stripping
Codec ID : A_DTS
Duration : 1h 45mn
Bit rate mode : Constant
Bit rate : 1 510 Kbps
Channel(s) : 6 channels
Channel positions : Front: L C R, Side: L R, LFE
Sampling rate : 48.0 KHz
Bit depth : 24 bits
Compression mode : Lossy
Stream size : 1.12 GiB (21%)
Title : 5.1 @ 1536 kbps
Language : English

Text #1
ID : 4
Format : UTF-8
Codec ID : S_TEXT/UTF8
Codec ID/Info : UTF-8 Plain Text
Language : Ukrainian

Text #2
ID : 5
Format : UTF-8
Codec ID : S_TEXT/UTF8
Codec ID/Info : UTF-8 Plain Text
Title : Full
Language : English

Menu
00:00:00.000 : en:Chapter 01
00:03:18.824 : en:Chapter 02
00:08:09.531 : en:Chapter 03
00:13:27.682 : en:Chapter 04
00:18:02.790 : en:Chapter 05
00:22:20.130 : en:Chapter 06
00:29:50.789 : en:Chapter 07
00:33:50.862 : en:Chapter 08
00:40:25.757 : en:Chapter 09
00:45:05.202 : en:Chapter 10
00:52:02.786 : en:Chapter 11
00:58:06.358 : en:Chapter 12
01:04:17.645 : en:Chapter 13
01:09:29.624 : en:Chapter 14
01:16:26.332 : en:Chapter 15
01:19:17.670 : en:Chapter 16
01:24:27.229 : en:Chapter 17
01:30:26.796 : en:Chapter 18
01:36:37.333 : en:Chapter 19
01:38:21.395 : en:Chapter 20
Скріншоти





Джерело:
Особиста оцінка: 0 - не дивився


 Трекер:    Зареєстрований   

Завантажити / скачати фільм українською



відео для новачків



 Зареєстрований:   2011-12-09 20:43
 Розмір:   5.44 GB 
 Оцінка фільму:   8.4/10 (Голосів: 18)
   
Інші релізи
   Нічка жахів / Fright Night (2011) 1080p Ukr/Eng | Sub Ukr/Eng kvvdvd  0 / 0   8.39 GB   2016-10-30 16:47 
   Нічка жахів / Fright Night (2011) AVC Ukr/Eng | Sub Ukr/Eng BASTERD-94  4 / 0   1.83 GB   2015-10-31 20:30 
   Нічка жахів / Fright Night (2011) 1080p Ukr/Eng (3D) [Half OverUnder] | Sub Ukr famous37  3 / 0   6.83 GB   2013-12-08 21:20 
   Нічка жахів / Fright Night (2011) Ukr/Eng Anonymous  2 / 0   2.19 GB   2011-12-07 18:17 
   Нічка жахів / Fright Night (2011) Ukr/Eng | sub Eng RosXXX  1 / 0   1.66 GB   2011-12-06 14:54 
Andick 
Модератор відео та координатор поширення


З нами з: 03.11.09
Востаннє: 03.12.16
Повідомлень: 1499

2011-12-09 20:44  
відмінність від цього http://toloka.to/t30628 :
    кращий ріп
    краща українська доріжка (з блюрика)

clint 
Поважний учасник


З нами з: 30.03.09
Востаннє: 02.12.16
Повідомлень: 200

2011-12-10 11:04  
особиста оцінка 0
мене стало на 10хв перегляду, з самої назви чути що фільм "відстій", але все таки вирішив завантажити, і ось.....я не помилився, банальний американський сюжет про вампірів..краще 2-ві годинки "повтикати" в стелю ніж дивитись цей фільм..

gordonf 
Новенький


З нами з: 20.09.12
Востаннє: 04.12.16
Повідомлень: 7

2013-07-24 21:49  
За Тенанта 10 а фільм так собі ;)
Ваш часовий пояс: GMT + 2 Години

Нова тема   Відповісти