Завантажити та скачати торренти українською


Смурфики / The Smurfs (2011) 720p

Нові коментарі

Нова тема   Відповісти
Автор Повідомлення
Zeus62 
Відео Гуртом - команда HD
Відео Гуртом - команда HD


З нами з: 29.12.08
Востаннє: 16.11.16
Повідомлень: 330

2011-12-08 15:04  
Смурфики / The Smurfs (2011) 720p



Жанр: анімація, комедія, пригодницький
Країна: США



Кіностудія / кінокомпанія: Columbia Pictures, Sony Pictures Animation, Kerner Entertainment Company
Режисер: Раджа Госнелл
Актори: Хенк Азарія, Ніл Патрік Харріс, Джейма Мейс, Джонатан Уінтерс, Алан Каммінг, Кеті Перрі

Сюжет:
За сюжетом, рятуючись від злого чарівника Гаргамеля, крихітні смурфики опиняються за межами рідного села. Зі свого чарівного світу вони потрапляють прямо в наш світ, а саме в Центральний парк міста Нью-Йорк. Тепер маленьким відважним смурфикам належить відшукати дорогу додому і не потрапити в лапи Гаргамеля.


Тривалість: 01:42:43
Якість:
Відео:
кодек:
розмір кадру: 1280 х 720
бітрейт: 5354 кб/с

Аудіо:
мова: українська
переклад: професійний дубльований
кодек: 5.1
бітрейт: 640 кб/с
MediaInfo:
Format : Matroska
File size : 4.30 GiB
Duration : 1h 42mn
Overall bit rate : 5 998 Kbps
Writing application : HandBrake 0.9.5
Writing library : libmkv 0.6.4.1

Video
ID : 1
Format : AVC
Format/Info : Advanced Video Codec
Format profile : [email protected]
Format settings, CABAC : Yes
Format settings, ReFrames : 10 frames
Codec ID : V_MPEG4/ISO/AVC
Duration : 1h 42mn
Bit rate : 5 354 Kbps
Width : 1 280 pixels
Height : 720 pixels
Display aspect ratio : 16:9
Frame rate mode : Variable
Frame rate : 23.976 fps
Color space : YUV
Chroma subsampling : 4:2:0
Bit depth : 8 bits
Scan type : Progressive
Bits/(Pixel*Frame) : 0.242
Stream size : 3.76 GiB (87%)
Writing library : core 112
Encoding settings : cabac=1 / ref=10 / deblock=1:-3:-3 / analyse=0x3:0x113 / me=umh / subme=10 / psy=1 / psy_rd=1,00:0,00 / mixed_ref=1 / me_range=34 / chroma_me=1 / trellis=2 / 8x8dct=1 / cqm=0 / deadzone=21,11 / fast_pskip=1 / chroma_qp_offset=-2 / threads=9 / sliced_threads=0 / nr=0 / decimate=1 / interlaced=0 / constrained_intra=0 / bframes=10 / b_pyramid=2 / b_adapt=1 / b_bias=0 / direct=1 / weightb=1 / open_gop=0 / weightp=2 / keyint=240 / keyint_min=23 / scenecut=40 / intra_refresh=0 / rc_lookahead=50 / rc=2pass / mbtree=1 / bitrate=5354 / ratetol=1,0 / qcomp=0,60 / qpmin=3 / qpmax=51 / qpstep=4 / cplxblur=20,0 / qblur=0,5 / ip_ratio=1,40 / aq=1:1,00
Language : English
Color primaries : BT.709-5, BT.1361, IEC 61966-2-4, SMPTE RP177
Transfer characteristics : BT.709-5, BT.1361
Matrix coefficients : BT.709-5, BT.1361, IEC 61966-2-4 709, SMPTE RP177

Audio
ID : 2
Format : AC-3
Format/Info : Audio Coding 3
Mode extension : CM (complete main)
Codec ID : A_AC3
Duration : 1h 42mn
Bit rate mode : Constant
Bit rate : 640 Kbps
Channel(s) : 6 channels
Channel positions : Front: L C R, Side: L R, LFE
Sampling rate : 48.0 KHz
Bit depth : 16 bits
Compression mode : Lossy
Stream size : 470 MiB (11%)
Скріншоти:

Джерело: Власний ріп +
Особиста оцінка: 8 - мені сподобалося


 Трекер:    Зареєстрований   

Завантажити / скачати фільм українською



відео для новачків



 Зареєстрований:   2011-12-08 15:04
 Розмір:   4.3 GB 
 Оцінка фільму:   9.8/10 (Голосів: 9)
   
Інші релізи
   Смурфики / The Smurfs (2011) patriot2305  5 / 0   1.46 GB   2012-11-11 09:07 
   Смурфики / The Smurfs (2011) 720p Ukr/Eng | Sub Eng braveboy  5 / 0   4.3 GB   2012-02-18 05:22 
   Смурфики / The Smurfs (2011) Jatx_11  1 / 0   2.12 GB   2011-10-03 15:18 
   Смурфики / The Smurfs (2011) AVC DеLight  1 / 0   2.16 GB   2011-10-02 20:46 
   Смурфики / The Smurfs (2011) DVD9 Ukr/Rus | sub Rus Dimon19  2 / 0   5.31 GB   2011-09-20 15:57 
MBonner 
Новенький


З нами з: 17.02.09
Востаннє: 18.05.15
Повідомлень: 3

2012-01-11 20:07  
Happy
andrm 
Свій


З нами з: 17.03.09
Востаннє: 29.11.16
Повідомлень: 56

2016-02-08 21:45  
Все ніби добре окрім того що ім'я файлу містить на початку пробіл: " The Smurfs(2011) 720p[Hurtom].mkv"
leroykendall 
Модератор HD


З нами з: 03.01.11
Востаннє: 20.11.16
Повідомлень: 749

2016-02-09 04:57  
andrm
Так, але він - старенький вже - більше 4-х років, а тому заслуговує на повагу.

Ваш часовий пояс: GMT + 2 Години

Нова тема   Відповісти