Завантажити та скачати торренти українською


Повстання планети мавп / Rise of the Planet of the Apes (2011) AVC Ukr/Eng

Нові коментарі

Нова тема   Відповісти
Автор Повідомлення
Anonymous 







2011-12-07 23:01  
Повстання планети мавп / Rise of the Planet of the Apes (2011) AVC Ukr/Eng



Жанр: драма, екшн, бойовик, фантастика
Країна: США



Кіностудія / кінокомпанія: Twentieth Century Fox Film Corporation, Chernin Entertainment, Dune Entertainment
Режисер: Руперт Віатт (Rupert Wyatt)
Актори: Джеймс Франко (James Franco), Джон Літгоу (John Lithgow), Фріда Пінто (Freida Pinto), Тайлер Лебін (Tyler Labine), Брайан Кокс (Brian Cox), Том Фелтон (Tom Felton), Девід Ойєлоуо (David Oyelowo) та інші.

Сюжет:
Дія фільму відбувається в сучасному Сан-Франциско і будується навколо вченого, генетичні експерименти якого призвели до виникнення високорозвиненого інтелекту у мавп. Примати, усвідомивши своє підлегле становище, піднімають повстання і позбавляють людину звання царя природи.


Тривалість: 01:44:56
Якість: AVC
Відео:
кодек:
розмір кадру: 998 x 420
бітрейт: 2209 кб/с

Аудіо # 1:
мова: українська
переклад: професійний дубльований
кодек: 5.1
бітрейт: 448 кб/с

Аудіо # 2:
мова: англійська
переклад: оригінал
кодек: 5.1
бітрейт: 448 кб/с

Джерело озвучення:
Скріншоти:






MediaInfo
General
UniqueID : 223512583199579033853980043977583665054 (0xA826F52B60B158F980069C1FC9F69F9E)
Complete name : F:\Video\Фільми\Rise of the Planet of the Apes (2011) [ukr] AVC [ Hurtom ] by Vasua95.mkv
Format : Matroska
File size : 2.18 GiB
Duration : 1h 44mn
Overall bit rate : 2 977 Kbps
Movie name : Vosstanie Planety Obezyan / 2011 / Release by Vaippp / HQ-ViDEO
Encoded date : UTC 2011-12-09 12:09:10
Writing application : mkvmerge v4.9.1 ('Ich will') зібрано Jul 11 2011 23:53:15
Writing library : libebml v1.2.1 + libmatroska v1.1.1

Video
ID : 1
Format : AVC
Format/Info : Advanced Video Codec
Format profile : [email protected]
Format settings, CABAC : Yes
Format settings, ReFrames : 12 frames
Muxing mode : Header stripping
Codec ID : V_MPEG4/ISO/AVC
Duration : 1h 44mn
Bit rate : 2 150 Kbps
Width : 988 pixels
Height : 420 pixels
Display aspect ratio : 2.35:1
Frame rate : 23.976 fps
Color space : YUV
Chroma subsampling : 4:2:0
Bit depth : 8 bits
Scan type : Progressive
Bits/(Pixel*Frame) : 0.216
Stream size : 1.58 GiB (72%)
Language : English
Matrix coefficients : BT.709-5, BT.1361, IEC 61966-2-4 709, SMPTE RP177

Audio #1
ID : 2
Format : AC-3
Format/Info : Audio Coding 3
Mode extension : CM (complete main)
Muxing mode : Header stripping
Codec ID : A_AC3
Duration : 1h 44mn
Bit rate mode : Constant
Bit rate : 384 Kbps
Channel(s) : 6 channels
Channel positions : Front: L C R, Side: L R, LFE
Sampling rate : 48.0 KHz
Bit depth : 16 bits
Compression mode : Lossy
Stream size : 288 MiB (13%)
Language : Ukrainian

Audio #2
ID : 3
Format : AC-3
Format/Info : Audio Coding 3
Mode extension : CM (complete main)
Muxing mode : Header stripping
Codec ID : A_AC3
Duration : 1h 44mn
Bit rate mode : Constant
Bit rate : 384 Kbps
Channel(s) : 6 channels
Channel positions : Front: L C R, Side: L R, LFE
Sampling rate : 48.0 KHz
Bit depth : 16 bits
Compression mode : Lossy
Stream size : 288 MiB (13%)
Language : English

Menu
00:00:00.000 : en:00:00:00.000
00:05:24.407 : en:00:05:24.407
00:09:17.974 : en:00:09:17.974
00:14:19.067 : en:00:14:19.067
00:18:07.545 : en:00:18:07.545
00:20:03.786 : en:00:20:03.786
00:22:38.148 : en:00:22:38.148
00:25:17.015 : en:00:25:17.015
00:29:42.656 : en:00:29:42.656
00:33:38.266 : en:00:33:38.266
00:38:29.098 : en:00:38:29.098
00:41:12.595 : en:00:41:12.595
00:45:19.008 : en:00:45:19.008
00:48:50.177 : en:00:48:50.177
00:52:56.632 : en:00:52:56.632
00:57:30.280 : en:00:57:30.280
00:59:26.730 : en:00:59:26.730
01:01:30.145 : en:01:01:30.145
01:05:03.608 : en:01:05:03.608
01:06:20.268 : en:01:06:20.268
01:09:34.962 : en:01:09:34.962
01:11:15.688 : en:01:11:15.688
01:15:44.123 : en:01:15:44.123
01:18:29.204 : en:01:18:29.204
01:23:09.276 : en:01:23:09.276
01:27:50.390 : en:01:27:50.390
01:33:00.366 : en:01:33:00.366
01:37:08.948 : en:01:37:08.948
Джерело:
Особиста оцінка: 10 - без зайвих вагань рекомендую всім!


 Трекер:    Зареєстрований   

Завантажити / скачати фільм українською



відео для новачків



 Зареєстрований:   2011-12-09 14:28
 Розмір:   2.18 GB 
 Оцінка фільму:   7.9/10 (Голосів: 31)
   
Михайло *КОЗАК* Безпалий 
VIP


З нами з: 05.03.11
Востаннє: 31.12.11
Повідомлень: 574

2011-12-07 23:16  
якже так можна було повестися з скріншотами?
Vitala9 
Поважний учасник


З нами з: 03.01.10
Востаннє: 03.12.16
Повідомлень: 209

2011-12-08 00:40  
Нарешті! Дочекались. Будь ласка хто сможе-викладіть українську доріжку окремо.
Mirqn 
Відео Гуртом - координатор озвучення


З нами з: 17.06.09
Востаннє: 27.07.15
Повідомлень: 2462

2011-12-08 01:47  
а коли "Щось" чекати?)))
Deluxeman 
Localize Team
Localize Team


З нами з: 31.10.09
Востаннє: 03.12.16
Повідомлень: 1604

2011-12-08 03:04  
Vasua95 написано:
Дія фільму відбувається в сучасному Сан-Франциско

Вау, це щось новеньке Rolleyes (1)

Варто дивитись кіно? Попередніх частин не бачив. До приматів відношусь нейтрально.

legos25 
Відео Гуртом - запис з ТБ
Відео Гуртом - запис з ТБ


З нами з: 02.02.10
Востаннє: 04.12.16
Повідомлень: 1105

2011-12-08 13:20  
Deluxeman написано:
Варто дивитись кіно? Попередніх частин не бачив. До приматів відношусь нейтрально.

А ти глянь на рейтинг IMDB Wink (1)

Vampiro 
Свій


З нами з: 14.08.11
Востаннє: 30.11.16
Повідомлень: 67

2011-12-08 16:13  
Deluxeman написано:
Варто дивитись кіно?

Ти ще запитуєш??? Я, наприклад, пошкодував, що не пішов в кінотетр. Цей фільм дійсно чудовий!

Princezuko 
Новенький


З нами з: 10.04.11
Востаннє: 27.11.16
Повідомлень: 2

2011-12-08 16:42  
Хороший фыльм=)
bot 
робот


З нами з: 30.09.07
Востаннє: 26.05.05
Повідомлень: 15983

2011-12-09 14:28  
Тему перенесено з Анонси релізів від Відео Гуртом до форуму Фільми


Vasua95

Loter 
Свій


З нами з: 17.04.09
Востаннє: 02.12.16
Повідомлень: 89

2011-12-09 20:15  
дякую релізеру за роботу)

скажіть хто знає, фільм має якусь спільну сюжетну лінію з іншими, попередніми, рімейками планет мавп, чи це щось зовсім інше?

Anonymous 







2011-12-09 21:11  
Loter написано:
скажіть хто знає, фільм має якусь спільну сюжетну лінію з іншими, попередніми, рімейками планет мавп, чи це щось зовсім інше?

не пов'язані!

Sichkor 
Новенький


З нами з: 07.03.11
Востаннє: 03.12.16
Повідомлень: 4

2011-12-10 00:09  
Фільм БОМБА !!! Зовсім не пов'язаний з попередніми фільмами про мавп .
Deluxeman 
Localize Team
Localize Team


З нами з: 31.10.09
Востаннє: 03.12.16
Повідомлень: 1604

2011-12-10 12:37  
Крутий фільм. Не думав що він буде такий Happy
спойлер
Тобто наскільки я зрозумів люди вимруть через вірус 112?
І буде продовження?
Цей фільм в антологію навіть включати неможна.

Anonymous 







2011-12-10 12:42  
Deluxeman написано:
Тобто наскільки я зрозумів люди вимруть через вірус 112?

Не 112 а 113
Wink (1)

eXteSy- 
VIP


З нами з: 06.04.09
Востаннє: 04.12.16
Повідомлень: 1452

2011-12-10 13:27  
Deluxeman написано:
Тобто наскільки я зрозумів люди вимруть через вірус 112?

Мабуть, варто це сховати під спойлер, ні?

Drool 
VIP


З нами з: 17.04.10
Востаннє: 03.12.16
Повідомлень: 1262

2012-01-05 12:36  
Vasua95 написано:

Аудіо # 1:

мова: українська

переклад: професійний дубльований

кодек: 5.1

бітрейт: 448 кб/с

Не правда - в MediaInfo вказано, що бітрейт 384, а не 448.

Sahokk 
Частий відвідувач


З нами з: 14.11.10
Востаннє: 05.10.15
Повідомлень: 48

2012-01-05 21:47  
дякую) чув про цей фільм говорять чудовий) візьму)
robotron005 
Відео Гуртом - фільмокрай
Відео Гуртом - фільмокрай


З нами з: 29.01.09
Востаннє: 04.12.16
Повідомлень: 2983

2016-05-04 19:20  
На 1+1 учора був власний дубляж.
Ваш часовий пояс: GMT + 2 Години

Нова тема   Відповісти