Завантажити та скачати торренти українською


Перший месник / Captain America: The First Avenger (2011) 720p | Sub Ukr

Нові коментарі

Нова тема   Відповісти
Автор Повідомлення
Zeus62 
Відео Гуртом - команда HD
Відео Гуртом - команда HD


З нами з: 29.12.08
Востаннє: 16.11.16
Повідомлень: 330

2011-12-07 22:49  
Перший месник / Captain America: The First Avenger (2011) 720p | Sub Ukr



Жанр: фантастика, пригодницький
Країна: США



Кіностудія / кінокомпанія: Marvel Enterprises, Marvel Entertainment, Marvel Studios
Режисер: Джо Джонстон
Актори: Кріс Еванс, Г'юґо Вівінґ, Гейлі Етвелл, Себастьян Стен, Домінік Купер, Стенлі Туччі, Томмі Лі Джонс, Річард Армітейдж, Тобі Джонс, Семюель Л. Джексон

Сюжет:
На екрани кінотеатрів виходить перший комікс-герой компанії Marvel - Капітан Америка, якого створили в 1940 році в якості патріотичного символу для країни, яка входила у війну з Третім Рейхом. Як і попередні чотири екранізації фільм розповідає початок історії Капітана - як один американський юнак взяв участь в науковому експерименті, котрий дав йому надлюдську силу і витривалість. Ці якості майже одразу знадобились йому для війни з нацистами і їх лідером - правою рукою Гітлера на прізвисько Червоний Череп.


Тривалість: 02:04:11
Якість:
Відео:
кодек:
розмір кадру: 1280 х 544
бітрейт: 4501 кб/с

Аудіо:
мова: українська
переклад: професійний дубльований
кодек: 5.1
бітрейт: 448 кб/с

Субтитри:
мова: українська
тип: програмні (м'які)
формат: *.pgs
MediaInfo:
Format : Matroska
File size : 4.30 GiB
Duration : 2h 4mn
Overall bit rate : 4 957 Kbps
Encoded date : UTC 2011-12-07 20:11:34
Writing application : mkvmerge v4.9.1 ('Ich will') зібрано Jul 23 2011 09:44:16
Writing library : libebml v1.2.1 + libmatroska v1.1.1

Video
ID : 1
Format : AVC
Format/Info : Advanced Video Codec
Format profile : [email protected]
Format settings, CABAC : Yes
Format settings, ReFrames : 10 frames
Codec ID : V_MPEG4/ISO/AVC
Duration : 2h 4mn
Bit rate : 4 501 Kbps
Width : 1 280 pixels
Height : 544 pixels
Display aspect ratio : 2.35:1
Frame rate mode : Variable
Frame rate : 23.976 fps
Color space : YUV
Chroma subsampling : 4:2:0
Bit depth : 8 bits
Scan type : Progressive
Bits/(Pixel*Frame) : 0.270
Stream size : 3.83 GiB (89%)
Writing library : core 112
Encoding settings : cabac=1 / ref=10 / deblock=1:-3:-3 / analyse=0x3:0x113 / me=umh / subme=10 / psy=1 / psy_rd=1,00:0,00 / mixed_ref=1 / me_range=34 / chroma_me=1 / trellis=2 / 8x8dct=1 / cqm=0 / deadzone=21,11 / fast_pskip=1 / chroma_qp_offset=-2 / threads=9 / sliced_threads=0 / nr=0 / decimate=1 / interlaced=0 / constrained_intra=0 / bframes=10 / b_pyramid=2 / b_adapt=1 / b_bias=0 / direct=1 / weightb=1 / open_gop=0 / weightp=2 / keyint=240 / keyint_min=23 / scenecut=40 / intra_refresh=0 / rc_lookahead=50 / rc=2pass / mbtree=1 / bitrate=4501 / ratetol=1,0 / qcomp=0,60 / qpmin=3 / qpmax=51 / qpstep=4 / cplxblur=20,0 / qblur=0,5 / ip_ratio=1,40 / aq=1:1,00
Language : Ukrainian
Color primaries : BT.709-5, BT.1361, IEC 61966-2-4, SMPTE RP177
Transfer characteristics : BT.709-5, BT.1361
Matrix coefficients : BT.709-5, BT.1361, IEC 61966-2-4 709, SMPTE RP177

Audio
ID : 2
Format : AC-3
Format/Info : Audio Coding 3
Mode extension : CM (complete main)
Codec ID : A_AC3
Duration : 2h 4mn
Bit rate mode : Constant
Bit rate : 448 Kbps
Channel(s) : 6 channels
Channel positions : Front: L C R, Side: L R, LFE
Sampling rate : 48.0 KHz
Bit depth : 16 bits
Compression mode : Lossy
Stream size : 398 MiB (9%)
Language : Ukrainian

Text
ID : 3
Format : PGS
Muxing mode : zlib
Codec ID : S_HDMV/PGS
Codec ID/Info : The same subtitle format used on BDs/HD-DVDs
Language : Ukrainian
Скріншоти:

Семпл:
Джерело: Власний ріп +
Особиста оцінка: 10 - без зайвих вагань рекомендую всім!


 Трекер:    Зареєстрований   

Завантажити / скачати фільм українською



відео для новачків



 Зареєстрований:   2011-12-07 22:49
 Розмір:   4.3 GB 
 Оцінка фільму:   9.4/10 (Голосів: 21)
   
Drool 
VIP


З нами з: 17.04.10
Востаннє: 10.12.16
Повідомлень: 1270

2011-12-09 14:50  
Вітаю. А на доріжку окремо можна розраховувати?
reminsky 
Новенький


З нами з: 04.10.13
Востаннє: 10.12.16
Повідомлень: 2

2015-03-30 21:41  
Дайте хтось завантажити цей реліз!
Ваш часовий пояс: GMT + 2 Години

Нова тема   Відповісти