Завантажити та скачати торренти українською


Місіс Даутфаєр / Mrs. Doubtfire (1993) 720p 2xUkr

Нові коментарі

Нова тема   Відповісти
Автор Повідомлення
Zeus62 
Відео Гуртом - команда HD
Відео Гуртом - команда HD


З нами з: 29.12.08
Востаннє: 16.11.16
Повідомлень: 330

2011-12-07 19:07  
Місіс Даутфаєр / Mrs. Doubtfire (1993) 720p 2xUkr



Жанр: комедія, драма, родинний
Країна: США



Кіностудія / кінокомпанія: Blue Wolf, Twentieth Century Fox Film Corporation
Режисер: Кріс Коламбус
Актори: Робін Вільямс, Саллі Філд, Пірс Броснан, Гарві Фірстейн, Поллі Голлідей, Ліза Джакуб, Меттью Лоуренс

Сюжет:
Неприємності сиплються на Деніеля Гіларда, наче з неба: він втрачає роботу, від нього йде дружина і після розлучення йому дозволено бачити дітей лише раз на тиждень! Але Деніель знаходить вихід - він переодягається в жіночий одяг і стає Місіс Даутфаєр - жінкою старшого віку. Він наймається до своєї колишньої дружини в домогосподарки, і тепер може бачити своїх дітей кожен день. Наслідки, звісно ж, будуть дуже непередбачуваними...


Тривалість: 02:05:11
Якість:
Відео:
кодек:
розмір кадру: 1280 х 544
бітрейт: 4397 кб/с

Аудіо # 1:
мова: українська
переклад: багатоголосий закадровий
кодек: 5.1
бітрейт: 384 кб/с

Аудіо # 2:
мова: українська
переклад: двоголосий закадровий
кодек: 5.1
бітрейт: 384 кб/с
MediaInfo
Format : Matroska
File size : 4.52 GiB
Duration : 2h 5mn
Overall bit rate : 5 164 Kbps
Encoded date : UTC 2011-12-06 12:02:57
Writing application : mkvmerge v4.9.1 ('Ich will') зібрано Jul 23 2011 09:44:16
Writing library : libebml v1.2.1 + libmatroska v1.1.1

Video
ID : 1
Format : AVC
Format/Info : Advanced Video Codec
Format profile : [email protected]
Format settings, CABAC : Yes
Format settings, ReFrames : 10 frames
Codec ID : V_MPEG4/ISO/AVC
Duration : 2h 5mn
Bit rate : 4 397 Kbps
Width : 1 280 pixels
Height : 544 pixels
Display aspect ratio : 2.35:1
Original display aspect ratio : 2.35:1
Frame rate mode : Variable
Frame rate : 23.976 fps
Color space : YUV
Chroma subsampling : 4:2:0
Bit depth : 8 bits
Scan type : Progressive
Bits/(Pixel*Frame) : 0.263
Stream size : 3.75 GiB (83%)
Writing library : core 112
Encoding settings : cabac=1 / ref=10 / deblock=1:-3:-3 / analyse=0x3:0x113 / me=umh / subme=10 / psy=1 / psy_rd=1,00:0,00 / mixed_ref=1 / me_range=34 / chroma_me=1 / trellis=2 / 8x8dct=1 / cqm=0 / deadzone=21,11 / fast_pskip=1 / chroma_qp_offset=-2 / threads=9 / sliced_threads=0 / nr=0 / decimate=1 / interlaced=0 / constrained_intra=0 / bframes=10 / b_pyramid=2 / b_adapt=1 / b_bias=0 / direct=1 / weightb=1 / open_gop=0 / weightp=2 / keyint=240 / keyint_min=23 / scenecut=40 / intra_refresh=0 / rc_lookahead=50 / rc=2pass / mbtree=1 / bitrate=4397 / ratetol=1,0 / qcomp=0,60 / qpmin=3 / qpmax=51 / qpstep=4 / cplxblur=20,0 / qblur=0,5 / ip_ratio=1,40 / aq=1:1,00
Language : English
Color primaries : BT.709-5, BT.1361, IEC 61966-2-4, SMPTE RP177
Transfer characteristics : BT.709-5, BT.1361
Matrix coefficients : BT.709-5, BT.1361, IEC 61966-2-4 709, SMPTE RP177

Audio #1
ID : 2
Format : AC-3
Format/Info : Audio Coding 3
Mode extension : CM (complete main)
Codec ID : A_AC3
Duration : 2h 5mn
Bit rate mode : Constant
Bit rate : 384 Kbps
Channel(s) : 6 channels
Channel positions : Front: L C R, Side: L R, LFE
Sampling rate : 48.0 KHz
Bit depth : 16 bits
Compression mode : Lossy
Stream size : 344 MiB (7%)

Audio #2
ID : 3
Format : AC-3
Format/Info : Audio Coding 3
Mode extension : CM (complete main)
Codec ID : A_AC3
Duration : 2h 5mn
Bit rate mode : Constant
Bit rate : 384 Kbps
Channel(s) : 6 channels
Channel positions : Front: L C R, Side: L R, LFE
Sampling rate : 48.0 KHz
Bit depth : 16 bits
Compression mode : Lossy
Stream size : 344 MiB (7%)
Скріншоти:

Джерело: Власний ріп +
Подяка oles за звукові доріжки.
Особиста оцінка: 10 - без зайвих вагань рекомендую всім!


Срібний реліз (на рейтинг впливає 50% завантаженого)
 Трекер:    Зареєстрований   

Завантажити / скачати фільм українською



відео для новачків



 Зареєстрований:   2011-12-07 19:07
 Розмір:   4.52 GB 
 Оцінка фільму:   9.5/10 (Голосів: 17)
   
Інші релізи
   Місіс Даутфайр / Mrs. Doubtfire (1993) [MP4, 640x] apvAltisimo  2 / 0   806 MB   2015-12-08 14:57 
   Місіс Даутфаєр / Mrs. Doubtfire (1993) 720p 2xUkr/Eng | Sub Eng Віктор  1 / 0   8.04 GB   2011-12-01 19:53 
   Місіс Даутфайр / Mrs. Doubtfire (1993) 2xUkr/Eng _oles  3 / 0   2.18 GB   2009-09-03 10:37 
DiGen 
Модератор HD та координатор Команди HD
Модератор HD та координатор Команди HD


З нами з: 12.11.09
Востаннє: 24.06.13
Повідомлень: 1452

2011-12-07 22:34  
Чому світлини не відповідають параметрам відео?
І доріжки як я розумію з Толоки, то і подяку можна додати.

Zeus62 
Відео Гуртом - команда HD
Відео Гуртом - команда HD


З нами з: 29.12.08
Востаннє: 16.11.16
Повідомлень: 330

2011-12-07 22:53  
DiGen
З приводу світлин не маю уявлення.Всюди у фільмі нормальне розширення показує,навіть це перевіряється Медіаінфо,а коли роблю скріншоти,то виходить те,що є: 1272х544 або 1280х547.

DiGen 
Модератор HD та координатор Команди HD
Модератор HD та координатор Команди HD


З нами з: 12.11.09
Востаннє: 24.06.13
Повідомлень: 1452

2011-12-08 18:54  
Тоді будемо орієнтуватись на МедіаІнфо.
Віктор 
Відео Гуртом - субтитрування
Відео Гуртом - субтитрування


З нами з: 09.01.10
Востаннє: 02.12.16
Повідомлень: 8661

2011-12-08 19:33  
DiGen написано:
Тоді будемо орієнтуватись на МедіаІнфо.


6c6c6 написано:

11. Скріншоти
Дуже важлива частина повідомлення, адже саме за скріншотами оригінального розміру можна визначити чи вірно вказано якість відео. Розмір завжди має відповідати даним із MediaInfo. Скріншоти можна заливати на будь який сервіс збереження фото, наприклад: imageshack.us, або share.te.ua. Скріншотів має бути не менше трьох, бажано і статичних, і рухомих кадрів. Якщо скріншоти повнорозмірні, тоді обов'язково їх брати під спойлер, якщо ж це зменшений скріншот, тоді має бути посилання на оригінальний з таким розширенням, яке у файлі з якого він зроблений.

Ваш часовий пояс: GMT + 2 Години

Нова тема   Відповісти