Завантажити та скачати торренти українською


VA - Перлини класичної музики [Золота колекція] (2005) [FLAC] | Classical

Нові коментарі

Нова тема   Відповісти
Автор Повідомлення
ssTAss 
Модератор музики


З нами з: 05.07.08
Востаннє: 04.12.16
Повідомлень: 10937

2011-12-06 17:48  
VA - Перлини класичної музики [Золота колекція] (2005) [FLAC] | Classical



Стиль: Classic
Країна: Україна
Видавець: Астра Рекордс
Виконавці:
VA
Пісні:
    1. Аве Марія (О. Басистюк)
    музика: Франц Шуберт
    2. Лебідь (анс. віолончелістів Нац. опери України)
    музика: Каміль Сен-Санс
    3. Серенада (Н. Петренко-Матвійчук)
    музика: Франц Шуберт, Л. Рельштаб
    4. Канцона (В. Зарков)
    музика: Ференц Ліст, Фердінанд Фрейлігарт
    5. Вальс №7 (В. Новиков)
    музика: Фридерік Шопен
    6. Средь шумного бала (В. Буймістер)
    музика: Петро Чайковський, Олексій Толстой
    7. Поема (І. Яременко)
    музика: Зденек Фібікс, Кос-Анатольський
    8. Дівчина зволоссям кольору льону (Н. Толпиго)
    музика: Клод Дебюссі
    9. Пісня Сольвейг (Д. Петриненко)
    музика: Едвард Гріг
    10. Вальс (О. Горохов)
    музика: Клод Дебюссі
    11. Не пой, красавица, при мне (Я. Гнатюк)
    музика: Сергій Рахманінов
    слова: Олександр Пушкін
    12. Вокаліз (Е. Акритова)
    музика: Сергій Рахманінов
    13. Мрії (О. Горохов, Л. Галяко)
    музика: Роберт Шуман
    14. Аріозо Лєнського (М. Дідик)
    музика: Петро Чайковський
    15. Ноктюрн Розлука (В. Чернов, Н. Толпиго)
    музика: Михайло Глінка
    16. Арія Лєнського (Володимир Гришко)
    музика: Петро Чайковський
    17. Мелодія з опери Орфей та Евридика (А. Коган, Т. Степанова)
    музика: Крістоф Віллібальд Глюк
    18. Аве Марія (О. Басистюк)
    музика: Джуліо Каччині
log

Exact Audio Copy V1.0 beta 1 from 15. November 2010

Отчёт EAC об извлечении, выполненном 22. марта 2011, 23:19

Різні виконавці / Перлини класичної музики

Дисковод: HL-DT-STDVDRAM GT30N Adapter: 0 ID: 1

Режим чтения : Достоверность
Использование точного потока : Да
Отключение кэша аудио : Да
Использование указателей C2 : Нет

Коррекция смещения при чтении : 103
Способность читать области Lead-in и Lead-out : Нет
Заполнение пропущенных сэмплов тишиной : Да
Удаление блоков с тишиной в начале и конце : Нет
При вычислениях CRC использовались нулевые сэмплы : Да
Интерфейс : Встроенный Win32-интерфейс для Win NT/2000

Выходной формат : Внутренние WAV-операции
Формат сэмплов : 44.100 Гц; 16 бит; стерео

TOC извлечённого CD

Трек | Старт | Длительность | Начальный сектор | Конечный сектор
---------------------------------------------------------------------
1 | 0:00.00 | 4:04.00 | 0 | 18299
2 | 4:04.00 | 3:30.03 | 18300 | 34052
3 | 7:34.03 | 4:18.12 | 34053 | 53414
4 | 11:52.15 | 5:24.06 | 53415 | 77720
5 | 17:16.21 | 3:28.02 | 77721 | 93322
6 | 20:44.23 | 2:15.02 | 93323 | 103449
7 | 22:59.25 | 3:24.01 | 103450 | 118750
8 | 26:23.26 | 2:26.02 | 118751 | 129702
9 | 28:49.28 | 5:53.05 | 129703 | 156182
10 | 34:42.33 | 5:02.08 | 156183 | 178840
11 | 39:44.41 | 4:31.02 | 178841 | 199167
12 | 44:15.43 | 5:57.06 | 199168 | 225948
13 | 50:12.49 | 2:23.04 | 225949 | 236677
14 | 52:35.53 | 2:47.02 | 236678 | 249204
15 | 55:22.55 | 4:32.09 | 249205 | 269613
16 | 59:54.64 | 6:54.02 | 269614 | 300665
17 | 66:48.66 | 4:02.02 | 300666 | 318817
18 | 70:50.68 | 3:30.02 | 318818 | 334569

Характеристики диапазона извлечения и сообщения об ошибках

Выбранный диапазон

Имя файла C:\Users\Lossless Galaxy Rip by a_warrior\Різні виконавці - Перлини класичної музики.wav

Пиковый уровень 96.2 %
0.1 X
Качество диапазона 99.9 %
CRC теста BC268A3A
CRC копии BC268A3A
Копирование... OK

Ошибок не произошло

AccurateRip: сводка

Трек 1 нет в базе данных
Трек 2 нет в базе данных
Трек 3 нет в базе данных
Трек 4 нет в базе данных
Трек 5 нет в базе данных
Трек 6 нет в базе данных
Трек 7 нет в базе данных
Трек 8 нет в базе данных
Трек 9 нет в базе данных
Трек 10 нет в базе данных
Трек 11 нет в базе данных
Трек 12 нет в базе данных
Трек 13 нет в базе данных
Трек 14 нет в базе данных
Трек 15 нет в базе данных
Трек 16 нет в базе данных
Трек 17 нет в базе данных
Трек 18 нет в базе данных

Ни одного трека нет в базе AccurateRip

Конец отчёта
Тривалість: 01:14:21
Мова: латина (1,18), відсутня (2,5,8,10,12,13,15,17), німецька (3,4), російська (6,7,9,11,14,16)
Аудіо-кодек: FLAC
Бітрейт: 532 кб/с
Джерело: інтернет
Додаткова інформація:
Цього разу у серії "Золота колекція" – класика не українська, а світова. Щоправда, у виконанні українців – але як же ж інакше? Втім, є на збірці і один твір українського походження – ноктюрн "Розлука" Михайла Глинки, але це вже деталі, і далеко не головні. А головним є інше. Якщо Ви поважаєте класичну музику, то цей диск є зайвою нагодою знову послухати улюблені музичні твори, що належать не до національної навіть, а до світової культурної скарбниці. А от якщо класична музика Вас зовсім не цікавить, то зрозуміло заздалегідь, що ніякі слова, натяки, погляди або квазімудрі цитати нікого не переконають і не змусять це слухати. Тож, кожному своє. І, якщо Вам до вподоби твори Шуберта, Шопена, Чайковського, Дебюссі і решти у аскетичному виконанні (тобто камерно, без усіляких оркестрів), то цей диск – саме для Вас. УМКА


Якщо Ви справді бажаєте підтримати українське - після прослуховування, якщо музика вам сподобалась,
придбайте ліцензійний диск.
Підтримаймо вітчизняних виконавців!


Срібний реліз (на рейтинг впливає 50% завантаженого)
 Трекер:    Зареєстрований   

Завантажити / скачати українську музику



відео для новачків



 Зареєстрований:   2011-12-06 17:48
 Розмір:   292 MB 
 Оцінка музики:   8.2/10 (Голосів: 19)
   
Kitler 
Модератор програмного забезпечення


З нами з: 22.04.11
Востаннє: 04.12.16
Повідомлень: 591

2011-12-06 18:16  
ssTAss написано:
Мова: латина (1,18), відсутня (2,5,8,10,12,13,15,17), німецька (3,4), російська (6,7,9,11,14,16)
А де ж українська загубилась Cry (1) ?
musicfan 
Модератор музики


З нами з: 27.01.09
Востаннє: 02.12.16
Повідомлень: 893

2011-12-07 09:12  
Kitler написано:
А де ж українська загубилась?

А відповідь дуже проста:
ssTAss написано:
Цього разу у серії "Золота колекція" – класика не українська, а світова. Щоправда, у виконанні українців...

Kitler 
Модератор програмного забезпечення


З нами з: 22.04.11
Востаннє: 04.12.16
Повідомлень: 591

2011-12-07 14:05  
Могли б і перекласти всі пісні Wide grin

Додано через 1 хвилину 40 секунд:

І відразу ж хотів запитати, чи може Модератор музики надати статус Перевірено свому релізу?

ssTAss 
Модератор музики


З нами з: 05.07.08
Востаннє: 04.12.16
Повідомлень: 10937

2011-12-07 16:51  
Kitler написано:
чи може Модератор музики надати статус Перевірено свому релізу?

в принципі так, але таке не практикується (і не бажано)

Ваш часовий пояс: GMT + 2 Години

Нова тема   Відповісти