Завантажити та скачати торренти українською


Знайомтеся – Джо Блек / Meet Joe Black (1998) 720p Ukr/Eng | Sub Eng

Нові коментарі

Нова тема   Відповісти
Автор Повідомлення
Віктор 
Відео Гуртом - субтитрування
Відео Гуртом - субтитрування


З нами з: 09.01.10
Востаннє: 08.12.16
Повідомлень: 8663

2011-12-06 17:04  
Знайомтеся – Джо Блек / Meet Joe Black (1998) 720p Ukr/Eng | Sub Eng



«Meet Joe Black: Sooner or Later Everyone Does»


Жанр: драма, фентезі, містика
Країна: США



Кіностудія / кінокомпанія: City Light Films, Universal Pictures
Режисер: Мартін Брест (Martin Brest)
Композитор: Томас Ньюмен (Thomas Newman)
Актори: Бред Піт (Brad Pitt), Ентоні Гопкінс (Anthony Hopkins), Клер Форлані (Claire Forlani), Джейк Вебер (Jake Weber), Марсія Ґай Гарден (Marcia Gay Harden), Джеффрі Тембор (Jeffrey Tambor) та інші.

Сюжет:
Медіа-магнат Вільям Періш має все, чого душа забажає – успіх, гроші, славу та владу. Напередодні свого 60-річного ювілею до нього завітав загадковий незнайомець. І вже скоро стає зрозуміло, що він має свої плани щодо старого – сама смерть у людській подобі спустилася на землю, щоб провести Вільяма на той світ. Але навіщо ж поспішати... І 'Джо Блек', названий так самим Вільямом, дає останньому стільки часу, скільки той зуміє у смерті виграти. Періш погоджується, сподіваючись у такий спосіб завершити свою земну роботу. Але коли він дізнається, що його донька закохується у Джо, та і той сам не збирається залишати своє кохання на землі, дотриматися обіцянки стає дедалі важче.
Номінації та цікаві факти

Золота малина, 1999 рік
Номінації (1):
Найгірший ремейк / сіквел

Сатурн, 1999 рік
Номінації (3):
Найкращий актор (Ентоні Гопкінс)
Найкраща актриса другого плану (Клер Форлані)
найкраща музика


• Зйомки фільму проходили з 11 червня по 12 листопада 1997 року в Нью-Йорку, місті Ворвік (штат Род-Айленд) і в місті Тенек (штат Нью-Джерсі).
• Впродовж деякого часу ця картина була найдорожчим фільмом, в якому не застосовувалися спецефекти.
• Картина є ремейком фільму 1934 року «Смерть бере відпустку» («Death Takes a Holiday»), спочатку переробленого і випущеного під тією ж назвою в 1971 році.
• Сценарій фільму був створений за п'єсою Альберто Каселла «Смерть бере вихідний».
• Маєток Вільяма Періша в перших і заключних частинах - це будівля Aldrich Mansion в Warwick Neck, Род-Айленд, Наррагансет Затока.
• Під час зйомок у Бреда Піта (Джо Блек) і Клер Форлані (Сьюзен) був короткочасний роман.
• У трейлері фільму лунає музика з «Аполлона 13».
• Бюджет - $90,000,000
MediaInfo

Код:
General
Unique ID                                : 243112092395798898266533894854696830262 (0xB6E5AF9470BD31AFBD1828C25AC50536)
Complete name                            : D:\HURTOM\Meet Joe Black (1998) [Ukr, Eng] 720p [Hurtom].mkv
Format                                   : Matroska
Format version                           : Version 2
File size                                : 9.28 GiB
Duration                                 : 3h 0mn
Overall bit rate                         : 7 359 Kbps
Movie name                               : Meet Joe Black (1998) [Ukr, Eng] 720p [Hurtom]
Encoded date                             : UTC 2011-12-06 08:58:18
Writing application                      : mkvmerge v5.0.1 ('Es ist Sommer') built on Oct  9 2011 11:55:43
Writing library                          : libebml v1.2.2 + libmatroska v1.3.0

Video
ID                                       : 1
Format                                   : AVC
Format/Info                              : Advanced Video Codec
Format profile                           : [email protected]
Format settings, CABAC                   : Yes
Format settings, ReFrames                : 9 frames
Codec ID                                 : V_MPEG4/ISO/AVC
Duration                                 : 3h 0mn
Bit rate                                 : 6 270 Kbps
Width                                    : 1 280 pixels
Height                                   : 694 pixels
Display aspect ratio                     : 16:9
Frame rate                               : 23.976 fps
Color space                              : YUV
Chroma subsampling                       : 4:2:0
Bit depth                                : 8 bits
Scan type                                : Progressive
Bits/(Pixel*Frame)                       : 0.294
Stream size                              : 7.72 GiB (83%)
Title                                    : Meet Joe Black (1998) [Ukr, Eng] 720p [Hurtom]
Writing library                          : core 113 r1884 7313bb5
Encoding settings                        : cabac=1 / ref=9 / deblock=1:-3:-3 / analyse=0x3:0x113 / me=tesa / subme=10 / psy=1 / psy_rd=0.85:0.00 / mixed_ref=1 / me_range=48 / chroma_me=1 / trellis=2 / 8x8dct=1 / cqm=0 / deadzone=21,11 / fast_pskip=0 / chroma_qp_offset=-2 / threads=12 / sliced_threads=0 / nr=0 / decimate=1 / interlaced=0 / constrained_intra=0 / bframes=6 / b_pyramid=2 / b_adapt=2 / b_bias=0 / direct=3 / weightb=1 / open_gop=0 / weightp=2 / keyint=250 / keyint_min=23 / scenecut=40 / intra_refresh=0 / rc=2pass / mbtree=0 / bitrate=6270 / ratetol=1.0 / qcomp=0.60 / qpmin=0 / qpmax=69 / qpstep=4 / cplxblur=20.0 / qblur=0.5 / ip_ratio=1.40 / pb_ratio=1.30 / aq=1:0.80
Language                                 : English

Audio #1
ID                                       : 2
Format                                   : AC-3
Format/Info                              : Audio Coding 3
Mode extension                           : CM (complete main)
Codec ID                                 : A_AC3
Duration                                 : 3h 0mn
Bit rate mode                            : Constant
Bit rate                                 : 448 Kbps
Channel(s)                               : 6 channels
Channel positions                        : Front: L C R, Side: L R, LFE
Sampling rate                            : 48.0 KHz
Bit depth                                : 16 bits
Compression mode                         : Lossy
Stream size                              : 579 MiB (6%)
Title                                    : 5.1 @ 448 kbps - двоголосий закадровий
Language                                 : Ukrainian

Audio #2
ID                                       : 3
Format                                   : AC-3
Format/Info                              : Audio Coding 3
Mode extension                           : CM (complete main)
Codec ID                                 : A_AC3
Duration                                 : 3h 0mn
Bit rate mode                            : Constant
Bit rate                                 : 640 Kbps
Channel(s)                               : 6 channels
Channel positions                        : Front: L C R, Side: L R, LFE
Sampling rate                            : 48.0 KHz
Bit depth                                : 16 bits
Compression mode                         : Lossy
Stream size                              : 827 MiB (9%)
Title                                    : 5.1 @ 640 kbps
Language                                 : English

Text
ID                                       : 4
Format                                   : UTF-8
Codec ID                                 : S_TEXT/UTF8
Codec ID/Info                            : UTF-8 Plain Text
Language                                 : English

Menu
00:00:00.000                             : :Chapter 01
00:02:43.830                             : :Chapter 02
00:11:05.748                             : :Chapter 03
00:22:13.165                             : :Chapter 04
00:50:30.027                             : :Chapter 05
01:01:09.999                             : :Chapter 06
01:11:29.910                             : :Chapter 07
01:25:20.990                             : :Chapter 08
01:32:19.450                             : :Chapter 09
01:37:13.285                             : :Chapter 10
01:44:29.721                             : :Chapter 11
02:05:46.914                             : :Chapter 12
02:17:29.658                             : :Chapter 13
02:21:50.335                             : :Chapter 14
02:30:16.507                             : :Chapter 15
02:36:23.499                             : :Chapter 16
02:49:02.340                             : :Chapter 17
02:54:26.456                             : :Chapter 18
Релізи та інформація про озвучення/дублювання

720p Ukr/Eng | Sub Eng (9.28 GB) — двоголосий закадровий запис з? (+ по ТРК Україна)
(2.87 GB) — двоголосий закадровий запис з? (+ по ТРК Україна)

Ролі озвучили: Інна Капінос і Юрій Гребельник
Тривалість: 03:00:33
Якість: 720р (HiDt)
Відео:
кодек: (L4.1)
розмір кадру: 1280x694 (OAR)
бітрейт: 6270 кб/с

Аудіо # 1:
мова: українська
переклад: двоголосий закадровий запис з ? (+ по ТРК Україна)
кодек: 5.1
бітрейт: 448 кб/с

Аудіо # 2:
мова: англійська
переклад: ориґінал
кодек: 5.1
бітрейт: 640 кб/с

Субтитри:
мова: англійська
тип: програмні (м’які)
формат: *.srt

Скріншоти:





За синхронізацію української доріжки подяка Romczyk-y,
за запис доріжки з ТБ подяка невідомому герою


Джерело:
Особиста оцінка: 10


Срібний реліз (на рейтинг впливає 50% завантаженого)
 Трекер:    Зареєстрований   

Завантажити / скачати фільм українською



відео для новачків



 Зареєстрований:   2011-12-06 17:04
 Розмір:   9.28 GB 
 Оцінка фільму:   9/10 (Голосів: 21)
   
Інші релізи
Vampiro 
Свій


З нами з: 14.08.11
Востаннє: 30.11.16
Повідомлень: 67

2011-12-06 18:51  
Йой, недодивився що це БДріп з кодеком ...
Мій комп`ютер напевно не витягне, доведеться качати з

AndriyVoron 
Свій


З нами з: 30.11.10
Востаннє: 03.12.16
Повідомлень: 127

2011-12-06 21:56  
Відмінне Кіно з великої літери "К"
Stepan2009 
VIP


З нами з: 18.09.10
Востаннє: 08.12.16
Повідомлень: 322

2011-12-17 12:20  
Кращий з кращих.
waldi-hurtom 
VIP


З нами з: 07.10.12
Востаннє: 08.12.16
Повідомлень: 613

2013-01-10 23:13  
Скільки ні дивишся цей фільм - кожного разу відкриваєш щось нове. Незмінною залишається фантастична гра двох зубрів Голівуду. Плюс вишуканий переклад. 10 балів. Дякую!
St_Bandera 
Свій


З нами з: 19.09.09
Востаннє: 07.12.16
Повідомлень: 66

2013-01-11 10:44  
А будь ласка дайте швидкості
SHEVA1991 
Поважний учасник


З нами з: 29.11.12
Востаннє: 03.12.16
Повідомлень: 200

2013-08-21 15:52  
Фільм чудовий! дивився і ще буду дивитися!))))
taraskill1 
Модератор відео


З нами з: 21.01.12
Востаннє: 08.12.16
Повідомлень: 908

2015-01-29 13:17  
роздайте, будь ласка
Ваш часовий пояс: GMT + 2 Години

Нова тема   Відповісти