Завантажити та скачати торренти українською


Віктор Павлік - Вибране (2003) [FLAC] | Pop

Нові коментарі

Нова тема   Відповісти
Автор Повідомлення
ssTAss 
Модератор музики


З нами з: 05.07.08
Востаннє: 09.12.16
Повідомлень: 10948

2011-12-03 17:48  
Віктор Павлік - Вибране (2003) [FLAC] | Pop



Стиль: Pop
Країна, місто: Україна, Теребовля (Тернопільська обл.)
Сайти: Офіційний сайт
Видавець: СТУДІЯ 6 СЕКУНД
Виконавці:
Павлік Віктор Франкович
Пісні:
    1. Все знаю я
    2. Синьоокі солов'ї
    3. Ти подобаєшся мені (live)
    4. Будь що буде
    5. Дивна ніч
    6. Музика кохання
    7. Шу - слово ворожби
    8. Колискова
    9. Пам'ятай
    10. Дякуючи Богу
    11. Ти повір
    12. Сон моїх мрій
    13. Дала мені дала
    14. Так не буває
    15. Шимарик
    16. Остання мить
    17. Світку мій високий
    18. Хай буде так
    19. Снігова завіса
log

Exact Audio Copy V0.99 prebeta 5 from 4. May 2009

Отчёт EAC об извлечении, выполненном 18. сентября 2009, 17:54

Віктор_Павлік / Вибране

Дисковод: HL-DT-STDVD-RAM GH22LS30 Adapter: 2 ID: 0

Режим чтения : Достоверность
Использование точного потока : Да
Отключение кэша аудио : Да
Использование указателей C2 : Нет

Коррекция смещения при чтении : 102
Способность читать области Lead-in и Lead-out : Нет
Заполнение пропущенных сэмплов тишиной : Да
Удаление блоков с тишиной в начале и конце : Нет
При вычислениях CRC использовались нулевые сэмплы : Да
Интерфейс : Установленный внешний ASPI-интерфейс

Выходной формат : Внутренние WAV-операции
Формат сэмплов : 44.100 Гц; 16 бит; стерео

TOC извлечённого CD

Трек | Старт | Длительность | Начальный сектор | Конечный сектор
---------------------------------------------------------------------
1 | 0:00.00 | 3:54.29 | 0 | 17578
2 | 3:54.29 | 3:35.01 | 17579 | 33704
3 | 7:29.30 | 4:27.32 | 33705 | 53761
4 | 11:56.62 | 3:47.71 | 53762 | 70857
5 | 15:44.58 | 4:22.61 | 70858 | 90568
6 | 20:07.44 | 4:07.00 | 90569 | 109093
7 | 24:14.44 | 4:38.72 | 109094 | 130015
8 | 28:53.41 | 3:39.12 | 130016 | 146452
9 | 32:32.53 | 4:06.03 | 146453 | 164905
10 | 36:38.56 | 3:55.65 | 164906 | 182595
11 | 40:34.46 | 3:30.74 | 182596 | 198419
12 | 44:05.45 | 4:39.21 | 198420 | 219365
13 | 48:44.66 | 4:19.57 | 219366 | 238847
14 | 53:04.48 | 4:53.46 | 238848 | 260868
15 | 57:58.19 | 3:54.28 | 260869 | 278446
16 | 61:52.47 | 4:46.26 | 278447 | 299922
17 | 66:38.73 | 3:35.73 | 299923 | 316120
18 | 70:14.71 | 4:55.07 | 316121 | 338252
19 | 75:10.03 | 3:30.36 | 338253 | 354038

Характеристики диапазона извлечения и сообщения об ошибках

Выбранный диапазон

Имя файла G:\Новая папка\Віктор_Павлік - Вибране.wav

Пиковый уровень 99.4 %
Качество диапазона 100.0 %
CRC копии 92DBABCF
Копирование... OK

Ошибок не произошло

Конец отчёта
fooCDtect

fooCDtect - foobar2000 + auCDtect, baralgin.

auCDtect: CD records authenticity detector, version 0.8.2
Copyright (c) 2004 Oleg Berngardt. All rights reserved.
Copyright (c) 2004 Alexander Djourik. All rights reserved.

mode: 0

=======================================================
Track: 01 - Все знаю я
Quality: CDDA, 100%
=======================================================
Track: 02 - Синьоокі солов'ї
Quality: CDDA, 100%
=======================================================
Track: 03 - Ти подобаєшся мені (live)
Quality: CDDA, 100%
=======================================================
Track: 04 - Будь що буде
Quality: CDDA, 100%
=======================================================
Track: 05 - Дивна ніч
Quality: CDDA, 100%
=======================================================
Track: 06 - Музика кохання
Quality: CDDA, 100%
=======================================================
Track: 07 - Шу - слово ворожби
Quality: CDDA, 100%
=======================================================
Track: 08 - Колискова
Quality: CDDA, 99%
=======================================================
Track: 09 - Пам'ятай
Quality: CDDA, 99%
=======================================================
Track: 10 - Дякуючи Богу
Quality: CDDA, 100%
=======================================================
Track: 11 - Ти повір
Quality: CDDA, 100%
=======================================================
Track: 12 - Сон моїх мрій
Quality: CDDA, 100%
=======================================================
Track: 13 - Дала мені дала
Quality: CDDA, 100%
=======================================================
Track: 14 - Так не буває
Quality: CDDA, 100%
=======================================================
Track: 15 - Шимарик
Quality: CDDA, 100%
=======================================================
Track: 16 - Остання мить
Quality: CDDA, 100%
=======================================================
Track: 17 - Світку мій високий
Quality: CDDA, 100%
=======================================================
Track: 18 - Хай буде так
Quality: CDDA, 100%
=======================================================
Track: 19 - Снігова завіса
Quality: CDDA, 99%
=======================================================
Тривалість: 01:18:41
Мова: українська
Аудіо-кодек: FLAC
Бітрейт: 998 кб/с
Джерело: інший трекер (присутні скани)

Якщо Ви справді бажаєте підтримати українське - після прослуховування, якщо музика вам сподобалась,
придбайте ліцензійний диск.
Підтримаймо вітчизняних виконавців!


Срібний реліз (на рейтинг впливає 50% завантаженого)
 Трекер:    Зареєстрований   

Завантажити / скачати українську музику



відео для новачків



 Зареєстрований:   2011-12-03 17:48
 Розмір:   587 MB 
 Оцінка музики:   6.1/10 (Голосів: 7)
   
Ваш часовий пояс: GMT + 2 Години

Нова тема   Відповісти