Завантажити та скачати торренти українською


Людина дощу / Rain Man (1988) 720p 2xUkr/Eng | Sub Ukr/Eng

Нові коментарі

Нова тема   Відповісти
Автор Повідомлення
chaoscor 
Свій


З нами з: 17.10.10
Востаннє: 03.12.16
Повідомлень: 73

2011-12-02 22:58  
Людина дощу / Rain Man (1988) 720p 2xUkr/Eng | Sub Ukr/Eng


Жанр: драма
Країна: США

Top 250 #235

Режисер: Баррі Левінсон
Актори: Дастін Хоффман, Том Круз, Валерія Голіно, Джеррі Молен, Джек Мердок, Майкл Д. Робертс, Ральф Сеймур, Люсінда Дженні, Бонні Хант, Кім Роббільярд, Бет Грант

Сюжет:
Чарлі - молодий підприємець. Він рано почав самостійне життя і вже встиг навчитися використовувати людей і отримувати вигоду з будь-якої ситуації.
Його батько, з яким він не бачився багато років, вмирає і залишає свій чималий статок старшому синові Раймонду. Хворий на аутизм Раймонд, ще в дитинстві таємно поміщений в психіатричну клініку, поняття не має, що таке гроші і для чого вони потрібні. Однак, може майже не замислюючись, моментально і безпомилково вирішувати складні математичні задачі.
Обурений, що батько зберігав у таємниці існування брата, а ще більше тим, що весь спадок дістався не йому, Чарлі викрадає Раймонда з клініки. Брати сідають у стару машину їх батька і відправляються в повну цікавих пригод і трагічних несподіванок поїздку, яка, можливо, приведе їх до розуміння один одного.
Перемоги
1989 — фільм отримав чотири «Оскари»
Кращий фільм
Краща режисура
Кращий актор (Дастін Хоффман)
Кращий сценарист (Рональд Басс, Баррі Морроу).
1989 — «Золотий глобус»
Кращий фільм
Кращий актор
1989 — Гран-прі Берлінського Кінофестивалю (1988) — «Золотий Ведмідь».
1989 — Премія Давід ді Донателло
Краща работа режисера
Краща чоловіча роль
Тривалість: 02:13:50
Якість:
Відео:
кодек:
розмір кадру: 1280 х 692
бітрейт: 9000 кб/с

Аудіо # 1:
мова: українська
переклад: багатоголосий закадровий
кодек: 2.0
бітрейт: 192 кб/с


Аудіо # 2:
мова: українська
переклад: двоголосий закадровий
кодек: 2.0
бітрейт: 192 кб/с


доріжки взято з релізу karvai0

Аудіо # 3:
мова: англійська
переклад: оригінал
кодек: 5.1
бітрейт: 640 кб/с

Субтитри # 1:
мова: українська
тип: програмні (м'які)
формат: *.srt
переклад субтитрів - chaoscor

Субтитри # 2:
мова: англійська
тип: програмні (м'які)
формат: *.srt
MediaInfo

General
Complete name : N:\проекти\Rain Man (1988) 720p 2xUkrEng Sub UkrEng.mkv
Format : Matroska
File size : 9.37 GiB
Duration : 2h 13mn
Overall bit rate : 10.0 Mbps
Movie name : Rain Man (1988)
Encoded date : UTC 2013-02-10 17:34:59
Writing application : mkvmerge v5.2.1 ('A Far Off Place') built on Jan 2 2012 23:21:10
Writing library : libebml v1.2.3 + libmatroska v1.3.0
Video #1
ID : 1
Format : AVC
Format/Info : Advanced Video Codec
Format profile : [email protected]
Format settings, CABAC : Yes
Format settings, ReFrames : 9 frames
Muxing mode : Container [email protected]
Codec ID : V_MPEG4/ISO/AVC
Duration : 2h 13mn
Bit rate : 9 000 Kbps
Width : 1 280 pixels
Height : 692 pixels
Display aspect ratio : 1.850
Frame rate : 23.976 fps
Color space : YUV
Chroma subsampling : 4:2:0
Bit depth : 8 bits
Scan type : Progressive
Bits/(Pixel*Frame) : 0.424
Stream size : 8.23 GiB (88%)
Title : Video NTSC @ 9000 Kbps - EbP
Writing library : core 114 r1900 60ef1f8
Encoding settings : cabac=1 / ref=9 / deblock=1:-3:-3 / analyse=0x3:0x113 / me=tesa / subme=10 / psy=1 / psy_rd=1.00:0.00 / mixed_ref=1 / me_range=16 / chroma_me=1 / trellis=2 / 8x8dct=1 / cqm=0 / deadzone=21,11 / fast_pskip=0 / chroma_qp_offset=-2 / threads=6 / sliced_threads=0 / nr=0 / decimate=0 / interlaced=0 / constrained_intra=0 / bframes=7 / b_pyramid=2 / b_adapt=2 / b_bias=0 / direct=3 / weightb=1 / open_gop=0 / weightp=2 / keyint=250 / keyint_min=23 / scenecut=40 / intra_refresh=0 / rc=2pass / mbtree=0 / bitrate=9000 / ratetol=1.0 / qcomp=0.80 / qpmin=0 / qpmax=69 / qpstep=4 / cplxblur=20.0 / qblur=0.5 / ip_ratio=1.40 / pb_ratio=1.30 / aq=1:0.70
Language : English
Audio #2
ID : 2
Format : AC-3
Format/Info : Audio Coding 3
Mode extension : CM (complete main)
Codec ID : A_AC3
Duration : 2h 13mn
Bit rate mode : Constant
Bit rate : 192 Kbps
Channel(s) : 2 channels
Channel positions : Front: L R
Sampling rate : 48.0 KHz
Bit depth : 16 bits
Stream size : 184 MiB (2%)
Language : Ukrainian
Audio #3
ID : 3
Format : AC-3
Format/Info : Audio Coding 3
Mode extension : CM (complete main)
Codec ID : A_AC3
Duration : 2h 13mn
Bit rate mode : Constant
Bit rate : 192 Kbps
Channel(s) : 2 channels
Channel positions : Front: L R
Sampling rate : 48.0 KHz
Bit depth : 16 bits
Stream size : 184 MiB (2%)
Language : Ukrainian
Audio #4
ID : 4
Format : AC-3
Format/Info : Audio Coding 3
Mode extension : CM (complete main)
Codec ID : A_AC3
Duration : 2h 13mn
Bit rate mode : Constant
Bit rate : 640 Kbps
Channel(s) : 6 channels
Channel positions : Front: L C R, Side: L R, LFE
Sampling rate : 48.0 KHz
Bit depth : 16 bits
Stream size : 613 MiB (6%)
Title : DD 5.1 English @ 640 Kbps
Language : English
Text #5
ID : 5
Format : UTF-8
Codec ID : S_TEXT/UTF8
Codec ID/Info : UTF-8 Plain Text
Language : Ukrainian
Text #6
ID : 6
Format : UTF-8
Codec ID : S_TEXT/UTF8
Codec ID/Info : UTF-8 Plain Text
Language : English
Скріншоти


Джерело: &
Особиста оцінка: 10 - без зайвих вагань рекомендую всім!

Торрент файл оновлено!


Срібний реліз (на рейтинг впливає 50% завантаженого)
 Трекер:    Зареєстрований   

Завантажити / скачати фільм українською



відео для новачків



 Зареєстрований:   2013-02-10 21:23
 Розмір:   9.37 GB 
 Оцінка фільму:   9.9/10 (Голосів: 16)
   
Інші релізи
   Людина дощу / Rain Man (1988) 1080p 2xUkr/Eng | Sub Ukr/Eng leroykendall  1 / 0   19.01 GB   2013-02-10 14:53 
   Людина дощу / Rain Man (1988) 2xUkr/Eng | Sub Ukr/Eng karvai0  12 / 2   2.54 GB   2013-02-01 12:43 
DiGen 
Модератор HD та координатор Команди HD
Модератор HD та координатор Команди HD


З нами з: 12.11.09
Востаннє: 24.06.13
Повідомлень: 1452

2011-12-03 02:28  
Видно пошук був заблокований, бо в кожному моєму релізі є допис, де вказано всі плани на майбутнє - і цей теж там є.
phar 
Новенький


З нами з: 23.02.10
Востаннє: 26.11.16
Повідомлень: 12

2012-03-31 14:58  
У вас немає аві? Був би вдячний, а то не охота показувати дітям рускою мовою, або можливо зроблять золотий реліз, а я вже сам відконвертую)))
okzdp 
Поважний учасник


З нами з: 27.05.09
Востаннє: 06.12.16
Повідомлень: 209

2012-06-28 16:28  
класний фільм
NeReVaR 
Відео Гуртом - підтримка та поширення
Відео Гуртом - підтримка та поширення


З нами з: 30.06.09
Востаннє: 30.11.16
Повідомлень: 492

2012-07-18 17:50  
І де блін субтитири.
abodnya 
Відео Гуртом - фільмокрай
Відео Гуртом - фільмокрай


З нами з: 02.11.08
Востаннє: 06.12.16
Повідомлень: 5961

2012-07-18 18:28  
NeReVaR
chaoscor написано:

Text #3
ID : 3
Format : UTF-8
Codec ID : S_TEXT/UTF8
Codec ID/Info : UTF-8 Plain Text

Forestelf 
VIP


З нами з: 06.02.09
Востаннє: 21.01.16
Повідомлень: 894

2012-08-03 22:19  
Дайте окремо субтитри, будь ласочка!
chaoscor 
Свій


З нами з: 17.10.10
Востаннє: 03.12.16
Повідомлень: 73

2012-10-30 21:10  
.
малюк94 
VIP


З нами з: 03.03.10
Востаннє: 04.12.16
Повідомлень: 410

2013-01-29 16:56  
Допоможіть!
завантажив, але недодивився що нема укр мови..скачав на гуртому укр доріжку, але не можу її поставити через virtual dub mod...коли хочу зберегти фільм то вихідний розмір в мене виходить 240 гб..як з цим впоратись?(

pyatachok 
Координатор літератури


З нами з: 30.01.10
Востаннє: 06.12.16
Повідомлень: 1337

2013-01-29 17:21  
малюк94
Для роботи з МКВ використовуйте MKVToolNix

малюк94 
VIP


З нами з: 03.03.10
Востаннє: 04.12.16
Повідомлень: 410

2013-01-29 17:33  
pyatachok
я знайшов інструкцію як у VDM працювати з мкв, але дякую)скористаюсь вашою програмою)

chaoscor 
Свій


З нами з: 17.10.10
Востаннє: 03.12.16
Повідомлень: 73

2013-02-10 21:55  
На мою думку багатоголоска від "Мега" набагато більше змогла передати смисл фільму...
А двоголоска від "1+1" - розчарувала.

hellforces 
VIP


З нами з: 25.06.08
Востаннє: 11.11.16
Повідомлень: 1556

2013-03-10 14:44  
хороше, життєве кіно 8\10
озвучка від мега класна

BMK12 
Відео Гуртом - підтримка та поширення
Відео Гуртом - підтримка та поширення


З нами з: 13.04.09
Востаннє: 05.12.16
Повідомлень: 2985

2014-06-13 08:57  
Будь ласка, роздайте.
Maters 
VIP


З нами з: 27.03.12
Востаннє: 05.12.16
Повідомлень: 1159

2015-11-16 00:21  
Гарний фільм. Вкотре передивився і знову отримав задоволення від перегляду))
Ваш часовий пояс: GMT + 2 Години

Нова тема   Відповісти