Завантажити та скачати торренти українською


Здохни, Джон Такер [Розширена Версія] / John Tucker Must Die [Extended Cut] (2006) 720p

Нові коментарі

Нова тема   Відповісти
Автор Повідомлення
Zeus62 
Відео Гуртом - команда HD
Відео Гуртом - команда HD


З нами з: 29.12.08
Востаннє: 16.11.16
Повідомлень: 330

2011-12-01 14:47  
Здохни, Джон Такер [Розширена Версія] / John Tucker Must Die [Extended Cut] (2006) 720p



Жанр: комедія
Країна: США, Канада



Кіностудія / кінокомпанія: Warner Bros. Pictures
Режисер: Бетті Томас
Актори: Джессі Меткалф, Бріттані Сноу, Ашанті, Пенні Бадглі, Софі Буш

Сюжет:
Джон Такер? Шкільний фетиш, об'єкт бажань для дівчат та заздрощів для хлопців. Сам Джон із задоволенням користується перевагами своєї статної фігури та симпатичного обличчя. Та якось йому доведеться жорстоко поплатитися за легковажність у стосунках із протилежною статтю. Трійка дівчат, кожна з яких пройшла через Джонове ліжко, об'єдналася, аби перетворити життя Такера на пекло, а самого хлопця знищити морально...


Тривалість: 01:29:51
Якість:
Відео:
кодек:
розмір кадру: 1280 х 720
бітрейт: 6394 кб/с

Аудіо:
мова: українська
переклад: професійний дубльований
кодек: 5.1
бітрейт: 448 кб/с
MediaInfo
Format : Matroska
File size : 4.29 GiB
Duration : 1h 29mn
Overall bit rate : 6 843 Kbps
Writing application : HandBrake 0.9.5
Writing library : libmkv 0.6.4.1

Video
ID : 1
Format : AVC
Format/Info : Advanced Video Codec
Format profile : [email protected]
Format settings, CABAC : Yes
Format settings, ReFrames : 9 frames
Codec ID : V_MPEG4/ISO/AVC
Duration : 1h 29mn
Bit rate : 6 394 Kbps
Width : 1 280 pixels
Height : 720 pixels
Display aspect ratio : 16:9
Frame rate mode : Variable
Frame rate : 23.976 fps
Color space : YUV
Chroma subsampling : 4:2:0
Bit depth : 8 bits
Scan type : Progressive
Bits/(Pixel*Frame) : 0.289
Stream size : 3.93 GiB (91%)
Writing library : core 112
Encoding settings : cabac=1 / ref=9 / deblock=1:3:3 / analyse=0x1:0x111 / me=umh / subme=9 / psy=1 / psy_rd=1,00:0,00 / mixed_ref=0 / me_range=34 / chroma_me=1 / trellis=0 / 8x8dct=0 / cqm=0 / deadzone=21,11 / fast_pskip=1 / chroma_qp_offset=-2 / threads=9 / sliced_threads=0 / nr=0 / decimate=1 / interlaced=0 / constrained_intra=0 / bframes=9 / b_pyramid=2 / b_adapt=1 / b_bias=0 / direct=1 / weightb=0 / open_gop=0 / weightp=2 / keyint=240 / keyint_min=23 / scenecut=40 / intra_refresh=0 / rc_lookahead=40 / rc=2pass / mbtree=1 / bitrate=6394 / ratetol=1,0 / qcomp=0,60 / qpmin=3 / qpmax=51 / qpstep=4 / cplxblur=20,0 / qblur=0,5 / ip_ratio=1,40 / aq=1:1,00
Language : English
Color primaries : BT.709-5, BT.1361, IEC 61966-2-4, SMPTE RP177
Transfer characteristics : BT.709-5, BT.1361
Matrix coefficients : BT.709-5, BT.1361, IEC 61966-2-4 709, SMPTE RP177

Audio
ID : 2
Format : AC-3
Format/Info : Audio Coding 3
Mode extension : CM (complete main)
Codec ID : A_AC3
Duration : 1h 29mn
Bit rate mode : Constant
Bit rate : 448 Kbps
Channel(s) : 6 channels
Channel positions : Front: L C R, Side: L R, LFE
Sampling rate : 48.0 KHz
Bit depth : 16 bits
Compression mode : Lossy
Stream size : 288 MiB (7%)
Скріншоти:

Джерело: Власний ріп +
Особиста оцінка: 10 - без зайвих вагань рекомендую всім!


 Трекер:    Зареєстрований   

Завантажити / скачати фільм українською



відео для новачків



 Зареєстрований:   2011-12-01 14:47
 Розмір:   4.29 GB 
 Оцінка фільму:   8.5/10 (Голосів: 11)
   
BMK12 
Відео Гуртом - підтримка та поширення
Відео Гуртом - підтримка та поширення


З нами з: 13.04.09
Востаннє: 07.12.16
Повідомлень: 2985

2012-11-04 15:27  
Досить цікавий фільм. І, як на мене, не звульгаризований. Усі сцени класно вписуються в контекст.
За озвучення (дублювання) - окрема похвала та подяка. Дуже сподобався підбір голосів. Усі ролі відіграно дуже класно.

Опис сюжету не дуже відповідає, але фільм мене не розчарував. Моя оцінка 8/10.

rrrrdddd 
Новенький


З нами з: 22.07.12
Востаннє: 06.12.16
Повідомлень: 4

2013-07-23 19:44  
Моє поважання! Просив би додати швидкості, маю бажання переглянути цей фільм в гд. Наперед вдячний
Ваш часовий пояс: GMT + 2 Години

Нова тема   Відповісти