Завантажити та скачати торренти українською


Гоп / Hop (2011) 720p UKR | Sub Ukr/Eng

Нові коментарі

Нова тема   Відповісти
Автор Повідомлення
Zeus62 
Відео Гуртом - команда HD
Відео Гуртом - команда HD


З нами з: 29.12.08
Востаннє: 16.11.16
Повідомлень: 330

2011-11-29 20:42  
Гоп / Hop (2011) 720p UKR | Sub Ukr/Eng



Жанр: анімація, комедія, сімейний
Країна: США



Кіностудія / кінокомпанія: Universal Pictures, Relativity Media, Illumination Entertainment; мейджор – Universal Pictures International
Режисер: Тім Хілл
Актори: Джеймс Марсден, Кейлі Куоко, Хью Лорі

Сюжет:
Безробітній лобуряка Фред одного разу збиває машиною Великоднього кролика. Поки казковий гризун поправляє здоров'я, герой змушений зайняти його місце, приступивши до роздачі фарбованих яєць дітворі по всьому світу.


Тривалість: 01:35:00
Якість:
Відео:
кодек:
розмір кадру: 1280 х 692
бітрейт: 6141 кб/с

Аудіо:
мова: українська
переклад: професійний дубльований
кодек: 5.1
бітрейт: 384 кб/с

Субтитри:
мова: українська
тип: програмні (м'які)
формат: *.srt

Субтитри:
мова: англійська (Full, SDH)
тип: програмні (м'які)
формат: *.srt
MediaInfo
Format : Matroska
File size : 4.33 GiB
Duration : 1h 35mn
Overall bit rate : 6 526 Kbps
Encoded date : UTC 2011-11-29 18:21:14
Writing application : mkvmerge v4.9.1 ('Ich will') зібрано Jul 23 2011 09:44:16
Writing library : libebml v1.2.1 + libmatroska v1.1.1

Video
ID : 1
Format : AVC
Format/Info : Advanced Video Codec
Format profile : [email protected]
Format settings, CABAC : Yes
Format settings, ReFrames : 4 frames
Format settings, GOP : M=3, N=49
Muxing mode : Header stripping
Codec ID : V_MPEG4/ISO/AVC
Duration : 1h 35mn
Bit rate : 6 141 Kbps
Width : 1 280 pixels
Height : 692 pixels
Display aspect ratio : 1.850
Frame rate mode : Variable
Frame rate : 23.976 fps
Color space : YUV
Chroma subsampling : 4:2:0
Bit depth : 8 bits
Scan type : Progressive
Bits/(Pixel*Frame) : 0.289
Stream size : 3.99 GiB (92%)
Writing library : core 112
Encoding settings : cabac=1 / ref=2 / deblock=1:0:0 / analyse=0x1:0x111 / me=hex / subme=6 / psy=1 / psy_rd=1,00:0,00 / mixed_ref=0 / me_range=16 / chroma_me=1 / trellis=0 / 8x8dct=0 / cqm=0 / deadzone=21,11 / fast_pskip=1 / chroma_qp_offset=-2 / threads=9 / sliced_threads=0 / nr=0 / decimate=1 / interlaced=0 / constrained_intra=0 / bframes=2 / b_pyramid=2 / b_adapt=1 / b_bias=0 / direct=1 / weightb=0 / open_gop=0 / weightp=2 / keyint=240 / keyint_min=23 / scenecut=40 / intra_refresh=0 / rc_lookahead=40 / rc=2pass / mbtree=1 / bitrate=6141 / ratetol=1,0 / qcomp=0,60 / qpmin=3 / qpmax=51 / qpstep=4 / cplxblur=20,0 / qblur=0,5 / ip_ratio=1,40 / aq=1:1,00
Language : English
Color primaries : BT.709-5, BT.1361, IEC 61966-2-4, SMPTE RP177
Transfer characteristics : BT.709-5, BT.1361
Matrix coefficients : BT.709-5, BT.1361, IEC 61966-2-4 709, SMPTE RP177

Audio
ID : 2
Format : AC-3
Format/Info : Audio Coding 3
Mode extension : CM (complete main)
Muxing mode : Header stripping
Codec ID : A_AC3
Duration : 1h 35mn
Bit rate mode : Constant
Bit rate : 384 Kbps
Channel(s) : 6 channels
Channel positions : Front: L C R, Side: L R, LFE
Sampling rate : 48.0 KHz
Bit depth : 16 bits
Compression mode : Lossy
Stream size : 261 MiB (6%)
Title : 5.1 - 384 kbps
Language : Ukrainian

Text #1
ID : 3
Format : UTF-8
Codec ID : S_TEXT/UTF8
Codec ID/Info : UTF-8 Plain Text
Title : Full
Language : Ukrainian

Text #2
ID : 4
Format : UTF-8
Codec ID : S_TEXT/UTF8
Codec ID/Info : UTF-8 Plain Text
Title : Full
Language : English

Text #3
ID : 5
Format : UTF-8
Codec ID : S_TEXT/UTF8
Codec ID/Info : UTF-8 Plain Text
Title : SDH
Language : English
Скріншоти:

Джерело: Власний ріп +
Особиста оцінка: 10 - без зайвих вагань рекомендую всім!


 Трекер:    Зареєстрований   

Завантажити / скачати фільм українською



відео для новачків



 Зареєстрований:   2011-11-29 20:42
 Розмір:   4.33 GB 
 Оцінка фільму:   9.7/10 (Голосів: 9)
   
Інші релізи
   Гоп / Бунт вухатих / Hop (2011) 2xUkr/Eng Arsenfpu  7 / 0   1.85 GB   2015-12-10 17:49 
   Гоп / Hop (2011) Ukr | Sub Ukr/Eng karvai0  2 / 0   1.45 GB   2011-10-07 13:49 
vovo619 
VIP


З нами з: 16.02.11
Востаннє: 29.10.15
Повідомлень: 309

2011-11-29 21:52  
мульт досить не поганий, але розрахований на американську адиуторію, оскільки у нас немає "пасхальних кроликів"Happy
Sensetivity 
VIP


З нами з: 03.05.11
Востаннє: 03.01.13
Повідомлень: 2019

2011-11-30 20:02  
Цитата:
Гоп / Hop (2011) 720p | Sub Ukr/Eng

Мультик без аудіо?
Цитата:
Толока -> HD українською -> Художні фільми в HD


(DiGen:29.11.2011) ©

BMK12 
Відео Гуртом - підтримка та поширення
Відео Гуртом - підтримка та поширення


З нами з: 13.04.09
Востаннє: 05.12.16
Повідомлень: 2985

2011-11-30 20:12  
Sensetivity написано:
Мультик без аудіо?

Мультфільм має аудіо:
Zeus62 написано:

Аудіо:
мова: українська
переклад: професійний дубльований
кодек: 5.1
бітрейт: 384 кб/с

braveboy 
Відео Гуртом - команда HD
Відео Гуртом - команда HD


З нами з: 15.06.10
Востаннє: 29.10.16
Повідомлень: 958

2011-11-30 20:13  
Sensetivity написано:

Цитата:
Гоп / Hop (2011) 720p | Sub Ukr/Eng

Мультик без аудіо?
Цитата:
Толока -> HD українською -> Художні фільми в HD

(DiGen:29.11.2011) ©


все правильно коли присутня тільки укр. доріжка то в назві непотрібно писати Ukr

DejaVu 
Відео Гуртом - підтримка та поширення
Відео Гуртом - підтримка та поширення


З нами з: 20.12.10
Востаннє: 03.12.16
Повідомлень: 754

2011-11-30 20:19  
Sensetivity написано:
Мультик без аудіо?


Sensetivity написано:
Толока -> HD українською -> Художні фільми в HD


А тепер уважно читаємо на, які жанри поділяється фільм:
Zeus62 написано:
Жанр: анімація, комедія, сімейний

BMK12 
Відео Гуртом - підтримка та поширення
Відео Гуртом - підтримка та поширення


З нами з: 13.04.09
Востаннє: 05.12.16
Повідомлень: 2985

2011-11-30 20:23  
DejaVu, мова йшла не про жанри, але про те, що відео без укр. дороги має бути в "Іноземні з українськими субтитрами"))

Додано через 1 хвилину 8 секунд:

Ось чому написано було зі знаком питання
Sensetivity написано:
Толока -> HD українською -> Художні фільми в HD

DejaVu 
Відео Гуртом - підтримка та поширення
Відео Гуртом - підтримка та поширення


З нами з: 20.12.10
Востаннє: 03.12.16
Повідомлень: 754

2011-11-30 20:32  
BMK12
А, тоді ибачаюсьHappy

The_Marlboro 
Відео Гуртом - субтитрування
Відео Гуртом - субтитрування


З нами з: 23.05.10
Востаннє: 06.12.16
Повідомлень: 2854

2011-11-30 20:41  
Sensetivity написано:
Мультик без аудіо?

Взагалі то це називається фільмами.

Sensetivity 
VIP


З нами з: 03.05.11
Востаннє: 03.01.13
Повідомлень: 2019

2011-11-30 20:58  
TheMarlboro
Тоді яка різниця між цим і скажімо "Тачки" ?

BMK12 
Відео Гуртом - підтримка та поширення
Відео Гуртом - підтримка та поширення


З нами з: 13.04.09
Востаннє: 05.12.16
Повідомлень: 2985

2011-11-30 21:00  
Sensetivity, проста)) В тачках анімація - абсолютно усе, а тут анімація лише часткова (крілик - анімаційний, людина і її світ - справжні).
DiGen 
Модератор HD та координатор Команди HD
Модератор HD та координатор Команди HD


З нами з: 12.11.09
Востаннє: 24.06.13
Повідомлень: 1452

2011-11-30 21:01  
Sensetivity, спеціально для Вас (таке буде тільки раз у житті), ексклюзивно - в назву додано Укр.
imonko 
Відео Гуртом - фільмокрай
Відео Гуртом - фільмокрай


З нами з: 20.07.08
Востаннє: 31.10.16
Повідомлень: 7309

2011-11-30 22:36  
Zeus62 і компанія які завантажили, поділіться будь ласка українською доріжкою
DiGen 
Модератор HD та координатор Команди HD
Модератор HD та координатор Команди HD


З нами з: 12.11.09
Востаннє: 24.06.13
Повідомлень: 1452

2011-12-01 09:36  
Zeus62, і мені теж
Zeus62 
Відео Гуртом - команда HD
Відео Гуртом - команда HD


З нами з: 29.12.08
Востаннє: 16.11.16
Повідомлень: 330

2011-12-02 21:08  
Посилання на доріжку:
http://us.ua/780838/

taras1994 
Почесний оцифрувальник літератури


З нами з: 23.03.12
Востаннє: 30.11.16
Повідомлень: 5096

2012-04-21 06:54  
таке миле створіння цей кролик.
Ваш часовий пояс: GMT + 2 Години

Нова тема   Відповісти