Завантажити та скачати торренти українською


Код да Вінчі [Розширена Версія] / The Da Vinci Code [Extended Cut] (2006) 720p | Sub Ukr

Нові коментарі

Нова тема   Відповісти
Автор Повідомлення
Zeus62 
Відео Гуртом - команда HD
Відео Гуртом - команда HD


З нами з: 29.12.08
Востаннє: 16.11.16
Повідомлень: 330

2011-11-29 20:16  
Код да Вінчі [Розширена Версія] / The Da Vinci Code [Extended Cut] (2006) 720p | Sub Ukr



Жанр: Містика, Триллер, Драма
Країна: США



Кіностудія / кінокомпанія: Columbia Pictures / Imagine Entertainment / Skylark Productions
Режисер: Рон Говард
Актори: Том Хенкс, Одрі Тоту, Ян МакКеллен, Жан Рено, Пол Беттані, Альфред Моліна, Юрген Прохнов, Жан-Ів Бертело, Етьєн Шико, Жан-П'єр Маріель

Сюжет:
Гарвардського професора Роберта Ленгдона підозрюють у жахливому злочині, якого він не чинив. Ленгдон знайомиться з криптографом паризької поліції Софі Нево і разом з нею намагається розкрити таємницю, яка може підірвати могутність католицької церкви. Роберт і Софі повинні це зробити до того, як їх візьмуть охоронці закону або зупинять противники, готові на все заради збереження великої релігійної таємниці ...


Тривалість: 02:54:37
Якість:
Відео:
кодек:
розмір кадру: 1280 х 532
бітрейт: 3104 кб/с

Аудіо:
мова: українська
переклад: багатоголосий закадровий
кодек: 5.1
бітрейт: 384 кб/с

Субтитри: (до моментів без перекладу)
мова: українська
тип: програмні (м'які)
формат: *.srt
MediaInfo
Format : Matroska
File size : 4.25 GiB
Duration : 2h 54mn
Overall bit rate : 3 488 Kbps
Encoded date : UTC 2011-11-29 18:01:11
Writing application : mkvmerge v4.9.1 ('Ich will') зібрано Jul 23 2011 09:44:16
Writing library : libebml v1.2.1 + libmatroska v1.1.1

Video
ID : 1
Format : AVC
Format/Info : Advanced Video Codec
Format profile : [email protected]
Format settings, CABAC : Yes
Format settings, ReFrames : 4 frames
Muxing mode : Header stripping
Codec ID : V_MPEG4/ISO/AVC
Duration : 2h 54mn
Bit rate : 3 104 Kbps
Width : 1 280 pixels
Height : 532 pixels
Display aspect ratio : 2.40:1
Frame rate mode : Variable
Frame rate : 23.976 fps
Color space : YUV
Chroma subsampling : 4:2:0
Bit depth : 8 bits
Scan type : Progressive
Bits/(Pixel*Frame) : 0.190
Stream size : 3.70 GiB (87%)
Writing library : core 112
Encoding settings : cabac=1 / ref=2 / deblock=1:0:0 / analyse=0x1:0x111 / me=hex / subme=6 / psy=1 / psy_rd=1,00:0,00 / mixed_ref=0 / me_range=16 / chroma_me=1 / trellis=0 / 8x8dct=0 / cqm=0 / deadzone=21,11 / fast_pskip=1 / chroma_qp_offset=-2 / threads=9 / sliced_threads=0 / nr=0 / decimate=1 / interlaced=0 / constrained_intra=0 / bframes=2 / b_pyramid=2 / b_adapt=1 / b_bias=0 / direct=1 / weightb=0 / open_gop=0 / weightp=2 / keyint=240 / keyint_min=23 / scenecut=40 / intra_refresh=0 / rc_lookahead=40 / rc=2pass / mbtree=1 / bitrate=3104 / ratetol=1,0 / qcomp=0,60 / qpmin=3 / qpmax=51 / qpstep=4 / cplxblur=20,0 / qblur=0,5 / ip_ratio=1,40 / aq=1:1,00
Language : English
Color primaries : BT.709-5, BT.1361, IEC 61966-2-4, SMPTE RP177
Transfer characteristics : BT.709-5, BT.1361
Matrix coefficients : BT.709-5, BT.1361, IEC 61966-2-4 709, SMPTE RP177

Audio
ID : 2
Format : AC-3
Format/Info : Audio Coding 3
Mode extension : CM (complete main)
Muxing mode : Header stripping
Codec ID : A_AC3
Duration : 2h 54mn
Bit rate mode : Constant
Bit rate : 384 Kbps
Channel(s) : 6 channels
Channel positions : Front: L C R, Side: L R, LFE
Sampling rate : 48.0 KHz
Bit depth : 16 bits
Compression mode : Lossy
Stream size : 480 MiB (11%)
Language : Ukrainian

Text
ID : 3
Format : UTF-8
Codec ID : S_TEXT/UTF8
Codec ID/Info : UTF-8 Plain Text
Скріншоти:

Джерело: Власний ріп +
Особиста оцінка: 10 - без зайвих вагань рекомендую всім!


 Трекер:    Зареєстрований   

Завантажити / скачати фільм українською



відео для новачків



 Зареєстрований:   2011-11-29 20:16
 Розмір:   4.25 GB 
 Оцінка фільму:   9.8/10 (Голосів: 62)
   
[Plus] 
Свій


З нами з: 28.09.10
Востаннє: 02.12.16
Повідомлень: 59

2011-11-29 23:09  
Фільм мені дуже дуже сподобався!!
dryura 
Свій


З нами з: 10.08.09
Востаннє: 02.12.16
Повідомлень: 77

2011-11-29 23:24  
що там є в розиреній версії чого нема в звичайній?
Zeus62 
Відео Гуртом - команда HD
Відео Гуртом - команда HD


З нами з: 29.12.08
Востаннє: 16.11.16
Повідомлень: 330

2011-11-30 02:01  
dryura
В розширеній версії додані сцени,яких в театралці немає.

dryura 
Свій


З нами з: 10.08.09
Востаннє: 02.12.16
Повідомлень: 77

2011-11-30 09:36  
Zeus62
дякую.

Zeus62 
Відео Гуртом - команда HD
Відео Гуртом - команда HD


З нами з: 29.12.08
Востаннє: 16.11.16
Повідомлень: 330

2011-12-02 21:04  
Нема за що
xzanton1zx 
Новенький


З нами з: 10.04.11
Востаннє: 28.01.16
Повідомлень: 3

2013-03-05 19:52  
Дайте швидкості, люююдииии!!!!

Додано через 30 хвилин 34 секунди:

Дякую-)

SHEVA1991 
Поважний учасник


З нами з: 29.11.12
Востаннє: 03.12.16
Повідомлень: 200

2013-11-22 16:11  
Дякую за українську доріжку та субтитри! Мені сподобався
KoriNoLarry 
Новенький


З нами з: 12.07.13
Востаннє: 26.11.16
Повідомлень: 2

2015-08-16 19:36  
Реліз гамно половина тексту не переведено з таким самим успіхом можна дивитись на англійській мові - інтер явно дав маху, картинка не 720р. Фільм класний - реліз аццццццтой НЕ рекомендую. краще пошукати інший, якщо хтось хоче подивитись фільм знову або не бачив його раніше.
Patriot_ukr 
VIP


З нами з: 06.04.15
Востаннє: 04.12.16
Повідомлень: 480

2015-11-20 15:38  
KoriNoLarry написано:
аццццццтой

Що це "слово" означає?
KoriNoLarry написано:
Реліз гамно

До чого тут реліз? Якщо судите фільм, то кажіть "фільм"
KoriNoLarry написано:
переведено

Перекладено
KoriNoLarry написано:
Фільм класний

Тобто фільм "класний", а реліз "Ацццццццтой", до чого тут реліз, якщо таке вже озвучення, іншого у нас немає
KoriNoLarry написано:
краще пошукати інший

Не знайдете...

Ваш часовий пояс: GMT + 2 Години

Нова тема   Відповісти