Завантажити та скачати торренти українською


Красунчик 2 / Zweiohrkuken (2009) 720p

Нові коментарі

Нова тема   Відповісти
Автор Повідомлення
Zeus62 
Відео Гуртом - команда HD
Відео Гуртом - команда HD


З нами з: 29.12.08
Востаннє: 16.11.16
Повідомлень: 330

2011-11-29 01:24  
Красунчик 2 / Zweiohrkuken (2009) 720p



Жанр: комедія, мелодрама
Країна: Німеччина



Кіностудія / кінокомпанія: Rothkirch Cartoon Film, Seven Pictures, Warner Bros., barefoot films
Режисер: Тіль Швайґер
Актори: Тіль Швайгер, Нора Чірнер, Маттіас Швайгхефер, Кен Дюкен, Едіта Маловчіч

Сюжет:
У новій комедії про пригоди красунчика Людо (Тіль Швайгер), у героїв фільму починається криза спільного життя. Герої дістають один одного через дрібниці і постійно влаштовують суперечки. Конфлікт виходить на новий рівень коли кожен з них зустрічає любов своєї молодості, і їхнім стосункам починає загрожувати серйозна небезпека.


Тривалість: 02:04:25
Якість:
Відео:
кодек:
розмір кадру: 1280 х 544
бітрейт: 4620 кб/с

Аудіо:
мова: українська
переклад: професійний дубльований
кодек: 5.1
бітрейт: 448 кб/с
MediaInfo
Format : Matroska
File size : 4.41 GiB
Duration : 2h 4mn
Overall bit rate : 5 069 Kbps
Encoded date : UTC 2011-11-28 23:02:47
Writing application : mkvmerge v4.9.1 ('Ich will') зібрано Jul 23 2011 09:44:16
Writing library : libebml v1.2.1 + libmatroska v1.1.1

Video
ID : 1
Format : AVC
Format/Info : Advanced Video Codec
Format profile : [email protected]
Format settings, CABAC : Yes
Format settings, ReFrames : 4 frames
Muxing mode : Header stripping
Codec ID : V_MPEG4/ISO/AVC
Duration : 2h 4mn
Bit rate : 4 620 Kbps
Width : 1 280 pixels
Height : 544 pixels
Display aspect ratio : 2.35:1
Frame rate mode : Variable
Frame rate : 23.976 fps
Color space : YUV
Chroma subsampling : 4:2:0
Bit depth : 8 bits
Scan type : Progressive
Bits/(Pixel*Frame) : 0.277
Stream size : 3.93 GiB (89%)
Writing library : core 112
Encoding settings : cabac=1 / ref=2 / deblock=1:0:0 / analyse=0x1:0x111 / me=hex / subme=6 / psy=1 / psy_rd=1,00:0,00 / mixed_ref=0 / me_range=16 / chroma_me=1 / trellis=0 / 8x8dct=0 / cqm=0 / deadzone=21,11 / fast_pskip=1 / chroma_qp_offset=-2 / threads=9 / sliced_threads=0 / nr=0 / decimate=1 / interlaced=0 / constrained_intra=0 / bframes=2 / b_pyramid=2 / b_adapt=1 / b_bias=0 / direct=1 / weightb=0 / open_gop=0 / weightp=2 / keyint=240 / keyint_min=23 / scenecut=40 / intra_refresh=0 / rc_lookahead=40 / rc=2pass / mbtree=1 / bitrate=4620 / ratetol=1,0 / qcomp=0,60 / qpmin=3 / qpmax=51 / qpstep=4 / cplxblur=20,0 / qblur=0,5 / ip_ratio=1,40 / aq=1:1,00
Language : English
Color primaries : BT.709-5, BT.1361, IEC 61966-2-4, SMPTE RP177
Transfer characteristics : BT.709-5, BT.1361
Matrix coefficients : BT.709-5, BT.1361, IEC 61966-2-4 709, SMPTE RP177

Audio
ID : 2
Format : AC-3
Format/Info : Audio Coding 3
Mode extension : CM (complete main)
Muxing mode : Header stripping
Codec ID : A_AC3
Duration : 2h 4mn
Bit rate mode : Constant
Bit rate : 448 Kbps
Channel(s) : 6 channels
Channel positions : Front: L C R, Side: L R, LFE
Sampling rate : 48.0 KHz
Bit depth : 16 bits
Compression mode : Lossy
Stream size : 399 MiB (9%)
Language : Ukrainian
Скріншоти:

Джерело: Власний ріп +
Особиста оцінка: 10 - без зайвих вагань рекомендую всім!


 Трекер:    Зареєстрований   

Завантажити / скачати фільм українською



відео для новачків



 Зареєстрований:   2011-11-29 01:24
 Розмір:   4.41 GB 
 Оцінка фільму:   8.9/10 (Голосів: 11)
   
Інші релізи
   Красунчик 2 / Zweiohrkuken (2009) maksym1990  0 / 0   1.37 GB   2010-05-05 11:56 
rakab 
Свій


З нами з: 02.08.09
Востаннє: 04.12.16
Повідомлень: 76

2012-01-04 15:45  
Розмір файлу вказано неправильно - насправді він складає 4.511 МБ, і якраз зайві 22 МБ не дають його записати на ДВД Sad (1)
Violator 
VIP


З нами з: 14.04.09
Востаннє: 07.12.16
Повідомлень: 568

2012-01-04 21:11  
4.511 МБ
4.41 також на ДіВіДі-5 не піде... =))

Ваш часовий пояс: GMT + 2 Години

Нова тема   Відповісти