Завантажити та скачати торренти українською


Знамення / Knowing (2009) 720p

Нові коментарі

Нова тема   Відповісти
Автор Повідомлення
Zeus62 
Відео Гуртом - команда HD
Відео Гуртом - команда HD


З нами з: 29.12.08
Востаннє: 16.11.16
Повідомлень: 330

2011-11-29 00:46  
Знамення / Knowing (2009) 720p



Жанр: Триллер, Драма, Детектив, Фантастика
Країна: США



Кіностудія / кінокомпанія: Escape Artists
Режисер: Алекс Прояс
Актори: Ніколас Кейдж, Чандлер Кентербері, Роуз Бірн, Д.Г. Малуні, Лара Робінсон, Надя Таунсенд, Алан Хопгуд, Едріенн Пікерінг, Джошуа Лонг, Даніель Картер

Сюжет:
Під час розкопок на території школи, де вчиться син викладача Теда Майлса, знаходять таємничу капсулу часу. Вражаючі передбачення, що знаходяться в капсулі, дійсно збулися, і це заставляє вчителя повірити в те, що до кінця тижня світ загине.

Незабаром він знаходить дівчину Діану, дочку жінки, яка в 1962 році і зарила капсулу. Спочатку вона скептично відноситься до справи, але з часом згадує незвичайні події з свого дитинства, і поступово всі деталі починають складатися в загальну картину.


Тривалість: 02:01:29
Якість:
Відео:
кодек:
розмір кадру: 1280 х 544
бітрейт: 4648 кб/с

Аудіо:
мова: українська
переклад: багатоголосий закадровий
кодек: 5.1
бітрейт: 384 кб/с
MediaInfo
Format : Matroska
File size : 4.27 GiB
Duration : 2h 1mn
Overall bit rate : 5 032 Kbps
Encoded date : UTC 2011-11-28 22:18:41
Writing application : mkvmerge v4.9.1 ('Ich will') зібрано Jul 23 2011 09:44:16
Writing library : libebml v1.2.1 + libmatroska v1.1.1

Video
ID : 1
Format : AVC
Format/Info : Advanced Video Codec
Format profile : [email protected]
Format settings, CABAC : Yes
Format settings, ReFrames : 4 frames
Muxing mode : Header stripping
Codec ID : V_MPEG4/ISO/AVC
Duration : 2h 1mn
Bit rate : 4 648 Kbps
Width : 1 280 pixels
Height : 544 pixels
Display aspect ratio : 2.35:1
Frame rate mode : Variable
Frame rate : 23.976 fps
Color space : YUV
Chroma subsampling : 4:2:0
Bit depth : 8 bits
Scan type : Progressive
Bits/(Pixel*Frame) : 0.278
Stream size : 3.86 GiB (90%)
Writing library : core 112
Encoding settings : cabac=1 / ref=2 / deblock=1:0:0 / analyse=0x1:0x111 / me=hex / subme=6 / psy=1 / psy_rd=1,00:0,00 / mixed_ref=0 / me_range=16 / chroma_me=1 / trellis=0 / 8x8dct=0 / cqm=0 / deadzone=21,11 / fast_pskip=1 / chroma_qp_offset=-2 / threads=9 / sliced_threads=0 / nr=0 / decimate=1 / interlaced=0 / constrained_intra=0 / bframes=2 / b_pyramid=2 / b_adapt=1 / b_bias=0 / direct=1 / weightb=0 / open_gop=0 / weightp=2 / keyint=240 / keyint_min=23 / scenecut=40 / intra_refresh=0 / rc_lookahead=40 / rc=2pass / mbtree=1 / bitrate=4648 / ratetol=1,0 / qcomp=0,60 / qpmin=3 / qpmax=51 / qpstep=4 / cplxblur=20,0 / qblur=0,5 / ip_ratio=1,40 / aq=1:1,00
Language : English
Color primaries : BT.709-5, BT.1361, IEC 61966-2-4, SMPTE RP177
Transfer characteristics : BT.709-5, BT.1361
Matrix coefficients : BT.709-5, BT.1361, IEC 61966-2-4 709, SMPTE RP177

Audio
ID : 2
Format : AC-3
Format/Info : Audio Coding 3
Mode extension : CM (complete main)
Muxing mode : Header stripping
Codec ID : A_AC3
Duration : 2h 1mn
Bit rate mode : Constant
Bit rate : 384 Kbps
Channel(s) : 6 channels
Channel positions : Front: L C R, Side: L R, LFE
Sampling rate : 48.0 KHz
Bit depth : 16 bits
Compression mode : Lossy
Stream size : 334 MiB (8%)
Language : Ukrainian
Скріншоти:

Джерело: Власний ріп +
Подяка Боді за звукову доріжку.
Особиста оцінка: 10 - без зайвих вагань рекомендую всім!


 Трекер:    Зареєстрований   

Завантажити / скачати фільм українською



відео для новачків



 Зареєстрований:   2011-11-29 00:46
 Розмір:   4.27 GB 
 Оцінка фільму:   9.6/10 (Голосів: 25)
   
Інші релізи
   Знамення / Knowing (2009) Ukr/Eng | Sub Eng karvai0  8 / 0   2.02 GB   2012-07-31 17:55 
trofum911 
Свій


З нами з: 31.01.12
Востаннє: 01.12.16
Повідомлень: 148

2013-10-23 19:44  
Дайте швидкості. Будь ласка.
donald_spark 
Новенький


З нами з: 17.08.14
Востаннє: 23.11.16
Повідомлень: 19

2014-08-17 22:54  
дайте швидкості
zubr_ne 
Частий відвідувач


З нами з: 03.06.09
Востаннє: 05.12.16
Повідомлень: 26

2014-12-27 10:17  
Станьте будь-ласка на роздачу, завантаження стоїть на нулю вже третю добу)
Ваш часовий пояс: GMT + 2 Години

Нова тема   Відповісти